<?xml version="1.0" standalone="no"?>
<!DOCTYPE svg PUBLIC "-//W3C//DTD SVG 1.1//EN" "http://www.w3.org/Graphics/SVG/1.1/DTD/svg11.dtd" >
<svg>
<metadata>
Created by FontForge 20120731 at Thu Mar 17 04:11:26 2016
 By www-data
</metadata>
<defs>
<font id="NanumSquareOTFB00" horiz-adv-x="940" vert-adv-y="1000" >
  <font-face 
    font-family="(null)"
    font-weight="700"
    font-stretch="normal"
    units-per-em="1000"
    panose-1="2 0 8 3 0 0 0 0 0 0"
    ascent="800"
    descent="-200"
    x-height="521"
    cap-height="695"
    bbox="-62 -252 1203 847"
    underline-thickness="50"
    underline-position="-100"
    unicode-range="U+0020-FFE6"
  />
<missing-glyph horiz-adv-x="910" 
d="M855 757v-900h-800v900h800zM790 -107l-335 385l-335 -385h670zM95 692v-768l334 384zM121 721l333 -384l334 384h-667zM815 -77v770l-334 -386z" />
    <glyph glyph-name=".notdef" horiz-adv-x="910" 
d="M855 757v-900h-800v900h800zM790 -107l-335 385l-335 -385h670zM95 692v-768l334 384zM121 721l333 -384l334 384h-667zM815 -77v770l-334 -386z" />
    <glyph glyph-name="space" unicode=" " horiz-adv-x="250" 
 />
    <glyph glyph-name="exclam" unicode="!" horiz-adv-x="300" 
d="M93 -67v115h114v-115h-114zM192 151h-84l-14 583h112z" />
    <glyph glyph-name="quotedbl" unicode="&#x22;" horiz-adv-x="387" 
d="M154 488h-84l-10 246h104zM317 488h-84l-10 246h104z" />
    <glyph glyph-name="numbersign" unicode="#" horiz-adv-x="614" 
d="M442 262h101v-87h-113l-28 -201h-80l28 201h-131l-27 -201h-81l28 201h-99v87h111l21 150h-101v87h114l27 196h80l-27 -196h130l27 196h81l-28 -196h99v-87h-111zM362 262l21 150h-131l-21 -150h131z" />
    <glyph glyph-name="dollar" unicode="$" horiz-adv-x="628" 
d="M286 -93v72c-85 5 -172 36 -226 80l50 75c47 -36 113 -64 176 -71v240c-125 29 -212 73 -212 192v18c0 90 69 166 212 177v61h61v-60c78 -4 147 -28 193 -64l-48 -70c-45 30 -92 47 -145 51v-231c169 -44 221 -98 221 -194v-15c0 -121 -92 -179 -221 -188v-73h-61z
M471 176c0 50 -23 85 -124 112v-225c82 9 124 49 124 98v15zM170 497c0 -57 42 -82 116 -104v214c-81 -8 -116 -50 -116 -93v-17z" />
    <glyph glyph-name="percent" unicode="%" horiz-adv-x="893" 
d="M276 -25h-90l431 720h89zM227 706c101 0 163 -64 163 -169v-42c0 -105 -62 -169 -163 -169s-163 64 -163 169v42c0 105 62 169 163 169zM227 394c57 0 85 34 85 103v38c0 68 -28 103 -85 103s-85 -35 -85 -103v-38c0 -69 28 -103 85 -103zM666 346
c101 0 163 -64 163 -169v-42c0 -105 -62 -169 -163 -169s-163 64 -163 169v42c0 105 62 169 163 169zM666 34c57 0 85 34 85 103v38c0 68 -28 103 -85 103s-85 -35 -85 -103v-38c0 -69 28 -103 85 -103z" />
    <glyph glyph-name="ampersand" unicode="&#x26;" horiz-adv-x="677" 
d="M281 49c63 0 118 23 158 62l-169 202c-94 -50 -136 -86 -136 -145v-16c0 -56 63 -103 147 -103zM217 555v-11c0 -36 40 -83 75 -124c87 50 103 89 103 124v11c0 37 -40 67 -89 67c-55 0 -89 -33 -89 -67zM525 361h91c0 -101 -21 -184 -63 -249l116 -137h-114l-59 70
c-59 -56 -139 -82 -213 -82h-6c-121 0 -236 59 -236 186v23c0 92 56 150 172 208c-40 47 -86 98 -86 161v18c0 78 62 147 179 147c111 0 180 -76 180 -147v-19c0 -64 -31 -120 -140 -185l146 -171c22 42 33 93 33 177z" />
    <glyph glyph-name="quotesingle" unicode="'" horiz-adv-x="228" 
d="M158 488h-88l-10 246h108z" />
    <glyph glyph-name="parenleft" unicode="(" horiz-adv-x="337" 
d="M177 324v-50c0 -152 34 -303 137 -444h-92c-99 118 -147 271 -147 449v40c0 178 48 329 147 447h92c-98 -132 -137 -282 -137 -442z" />
    <glyph glyph-name="parenright" unicode=")" horiz-adv-x="337" 
d="M160 274v50c0 160 -39 310 -137 442h92c99 -118 147 -269 147 -447v-40c0 -178 -48 -331 -147 -449h-92c103 141 137 292 137 444z" />
    <glyph glyph-name="asterisk" unicode="*" horiz-adv-x="469" 
d="M204 483l-120 -83l-41 77l139 59l-139 58l41 77l119 -83l-11 143h86l-12 -143l120 83l40 -77l-139 -58l139 -59l-40 -77l-120 83l12 -142h-86z" />
    <glyph glyph-name="plus" unicode="+" horiz-adv-x="600" 
d="M255 571h90v-211h207v-84h-207v-225h-90v225h-207v84h207v211z" />
    <glyph glyph-name="comma" unicode="," horiz-adv-x="294" 
d="M58 -175l42 228h115l-77 -228h-80z" />
    <glyph glyph-name="hyphen" unicode="-" horiz-adv-x="420" 
d="M46 292v84h326v-84h-326z" />
    <glyph glyph-name="period" unicode="." horiz-adv-x="294" 
d="M90 -67v115h114v-115h-114z" />
    <glyph glyph-name="slash" unicode="/" horiz-adv-x="437" 
d="M323 768h96l-306 -896h-95z" />
    <glyph glyph-name="zero" unicode="0" horiz-adv-x="610" 
d="M560 391v-112c0 -204 -82 -316 -255 -316c-171 0 -255 114 -255 316v112c0 202 87 315 255 315c170 0 255 -113 255 -315zM459 278v114c0 176 -66 222 -154 222c-84 0 -154 -47 -154 -222v-114c0 -177 70 -223 154 -223c88 0 154 45 154 223z" />
    <glyph glyph-name="one" unicode="1" horiz-adv-x="610" 
d="M425 -26h-99v605l-169 -100l-47 80l232 136h83v-721z" />
    <glyph glyph-name="two" unicode="2" horiz-adv-x="610" 
d="M64 57l269 292c82 90 90 130 90 168v8c0 57 -49 92 -124 92c-53 0 -110 -21 -157 -105l-76 49c34 62 98 145 231 145c146 0 225 -76 225 -181v-10c0 -78 -46 -146 -111 -215l-225 -240h362v-86h-484v83z" />
    <glyph glyph-name="three" unicode="3" horiz-adv-x="610" 
d="M146 546l-71 52c42 60 102 108 210 108c133 0 218 -72 218 -180v-10c0 -57 -24 -131 -113 -163c97 -17 146 -83 146 -166v-15c0 -106 -75 -209 -252 -209c-84 0 -163 26 -231 80l49 79c70 -51 120 -69 182 -69c105 0 153 53 153 118v13c0 95 -65 123 -149 123h-89v86h85
c90 0 121 60 121 122v8c0 63 -54 95 -119 95c-59 0 -101 -21 -140 -72z" />
    <glyph glyph-name="four" unicode="4" horiz-adv-x="610" 
d="M387 434h98v-221h102v-84h-102v-155h-98v155h-360v74l339 492h109l-332 -482h244v221z" />
    <glyph glyph-name="five" unicode="5" horiz-adv-x="610" 
d="M559 206v-15c0 -106 -71 -228 -251 -228c-98 0 -177 26 -245 80l49 79c69 -54 131 -69 198 -69c105 0 150 71 150 138v12c0 96 -53 143 -145 143c-61 0 -109 -26 -141 -57h-76l23 406h391v-85h-301l-11 -225c32 24 84 44 144 44c137 0 215 -101 215 -223z" />
    <glyph glyph-name="six" unicode="6" horiz-adv-x="610" 
d="M526 657l-38 -84c-45 26 -98 42 -155 42c-98 0 -166 -60 -173 -250c24 42 92 82 172 82c128 0 227 -89 227 -230v-22c0 -138 -99 -232 -246 -232c-162 0 -251 104 -251 297v37c0 316 115 409 277 409c65 0 133 -16 187 -49zM163 219v-14c0 -93 56 -152 146 -152
c93 0 151 53 151 147v13c0 96 -60 146 -148 146s-149 -61 -149 -140z" />
    <glyph glyph-name="seven" unicode="7" horiz-adv-x="610" 
d="M556 619l-285 -645h-108l286 635h-392v86h499v-76z" />
    <glyph glyph-name="eight" unicode="8" horiz-adv-x="610" 
d="M185 510v-11c0 -71 53 -114 120 -114c68 0 120 43 120 114v11c0 68 -48 109 -120 109c-71 0 -120 -41 -120 -109zM166 177v-11c0 -68 54 -114 140 -114s138 46 138 114v11c0 78 -59 121 -138 121c-78 0 -140 -41 -140 -121zM64 161v17c0 79 55 145 124 166
c-69 33 -103 98 -103 159v14c0 103 79 189 220 189c139 0 220 -86 220 -189v-14c0 -61 -33 -123 -103 -159c70 -21 124 -87 124 -166v-17c0 -115 -90 -198 -241 -198s-241 83 -241 198z" />
    <glyph glyph-name="nine" unicode="9" horiz-adv-x="610" 
d="M84 14l38 84c45 -26 98 -44 155 -44c100 0 169 58 173 246c-24 -42 -92 -82 -172 -82c-128 0 -227 89 -227 230v22c0 138 99 236 246 236c160 0 251 -100 251 -293v-37c0 -316 -98 -413 -277 -413c-65 0 -133 18 -187 51zM447 448v14c0 93 -56 154 -146 154
c-93 0 -151 -55 -151 -149v-13c0 -96 63 -148 148 -148c88 0 149 63 149 142z" />
    <glyph glyph-name="colon" unicode=":" horiz-adv-x="354" 
d="M120 13v115h114v-115h-114zM120 459v115h114v-115h-114z" />
    <glyph glyph-name="semicolon" unicode=";" horiz-adv-x="354" 
d="M120 459v115h114v-115h-114zM88 -95l42 228h115l-77 -228h-80z" />
    <glyph glyph-name="less" unicode="&#x3c;" horiz-adv-x="610" 
d="M179 324v-6l362 -187v-100l-472 250v79l472 250v-99z" />
    <glyph glyph-name="equal" unicode="=" horiz-adv-x="610" 
d="M74 383v85h462v-85h-462zM74 172v85h462v-85h-462z" />
    <glyph glyph-name="greater" unicode="&#x3e;" horiz-adv-x="610" 
d="M431 318v6l-362 187v99l472 -250v-79l-472 -250v100z" />
    <glyph glyph-name="question" unicode="?" horiz-adv-x="542" 
d="M300 141h-102v46c0 67 19 98 92 171c72 72 97 89 97 152v13c0 51 -36 95 -119 95c-65 0 -120 -28 -162 -72l-60 69c52 55 122 91 220 91c139 0 221 -73 221 -182v-14c0 -98 -62 -146 -124 -205c-44 -42 -63 -69 -63 -121v-43zM193 -67v115h114v-115h-114z" />
    <glyph glyph-name="at" unicode="@" horiz-adv-x="993" 
d="M758 40c-53 0 -109 26 -129 86h-1c-25 -64 -103 -84 -150 -84c-127 0 -196 78 -196 199v78c0 122 70 199 181 199c74 0 117 -26 136 -58v52h94v-315c0 -56 23 -81 66 -81c66 0 103 47 103 181v11c0 223 -133 358 -376 358c-208 0 -353 -137 -353 -370v-17
c0 -247 140 -384 373 -384c99 0 203 22 285 65l28 -70c-83 -45 -191 -71 -310 -71c-287 0 -459 178 -459 459v19c0 256 167 444 436 444c295 0 457 -176 457 -430v-13c0 -116 -39 -258 -185 -258zM381 303v-46c0 -76 33 -124 104 -124c56 0 109 23 109 104v88
c0 54 -28 103 -109 103c-65 0 -104 -30 -104 -125z" />
    <glyph glyph-name="A" unicode="A" horiz-adv-x="673" 
d="M384 695l269 -721h-104l-76 212h-276l-76 -212h-101l268 721h96zM288 440l-61 -169h216l-60 169c-22 60 -28 79 -48 145c-20 -67 -26 -85 -47 -145z" />
    <glyph glyph-name="B" unicode="B" horiz-adv-x="635" 
d="M82 -26v721h256c153 0 229 -58 229 -176v-21c0 -63 -30 -123 -116 -144c88 -13 149 -65 149 -165v-25c0 -118 -75 -190 -231 -190h-287zM181 310v-250h151c113 0 166 21 166 106v22c0 88 -44 122 -188 122h-129zM302 610h-121v-219h128c100 0 157 18 157 108v18
c0 85 -51 93 -164 93z" />
    <glyph glyph-name="C" unicode="C" horiz-adv-x="644" 
d="M550 131l54 -76c-72 -69 -158 -92 -255 -92c-172 0 -289 105 -289 317v109c0 210 118 317 289 317c99 0 171 -24 238 -77l-51 -81c-65 53 -122 66 -187 66c-109 0 -189 -73 -189 -238v-83c0 -165 80 -238 189 -238c69 0 141 17 201 76z" />
    <glyph glyph-name="D" unicode="D" horiz-adv-x="688" 
d="M82 695h239c198 0 303 -110 303 -309v-103c0 -199 -100 -309 -303 -309h-239v721zM181 608v-546h131c129 0 211 64 211 226v93c0 162 -82 227 -211 227h-131z" />
    <glyph glyph-name="E" unicode="E" horiz-adv-x="598" 
d="M82 695h449v-85h-350v-224h329v-85h-329v-242h357v-85h-456v721z" />
    <glyph glyph-name="F" unicode="F" horiz-adv-x="568" 
d="M82 695h446v-85h-347v-241h326v-85h-326v-310h-99v721z" />
    <glyph glyph-name="G" unicode="G" horiz-adv-x="671" 
d="M613 370v-342c-63 -44 -155 -65 -245 -65c-191 0 -308 105 -308 317v109c0 210 117 317 300 317c93 0 172 -23 239 -76l-51 -80c-63 50 -120 66 -188 66c-125 0 -201 -73 -201 -240v-83c0 -167 83 -240 212 -240c54 0 105 10 143 29v203h-160v85h259z" />
    <glyph glyph-name="H" unicode="H" horiz-adv-x="697" 
d="M516 695h99v-721h-99v332h-335v-332h-99v721h99v-301h335v301z" />
    <glyph glyph-name="I" unicode="I" horiz-adv-x="263" 
d="M82 695h99v-721h-99v721z" />
    <glyph glyph-name="J" unicode="J" horiz-adv-x="472" 
d="M392 695v-523c0 -160 -90 -209 -209 -209c-52 0 -120 18 -167 59l47 78c42 -33 77 -45 123 -45c74 0 107 39 107 138v502h99z" />
    <glyph glyph-name="K" unicode="K" horiz-adv-x="655" 
d="M618 695l-290 -312l307 -409h-126l-249 337l-79 -85v-252h-99v721h99v-345l316 345h121z" />
    <glyph glyph-name="L" unicode="L" horiz-adv-x="546" 
d="M82 695h99v-636h345v-85h-444v721z" />
    <glyph glyph-name="M" unicode="M" horiz-adv-x="850" 
d="M383 94l-170 400c-12 30 -21 51 -37 100v-620h-94v721h146l200 -472l195 472h145v-721h-95v620c-14 -52 -21 -70 -34 -100l-172 -400h-84z" />
    <glyph glyph-name="N" unicode="N" horiz-adv-x="701" 
d="M82 695h114l280 -486c14 -24 34 -62 51 -105v591h92v-721h-114l-280 484c-15 27 -34 63 -51 106v-590h-92v721z" />
    <glyph glyph-name="O" unicode="O" horiz-adv-x="706" 
d="M353 -37c-172 0 -293 105 -293 317v109c0 210 122 317 293 317s293 -107 293 -317v-109c0 -212 -121 -317 -293 -317zM353 616c-112 0 -193 -69 -193 -238v-87c0 -169 81 -238 193 -238c113 0 193 69 193 238v87c0 169 -80 238 -193 238z" />
    <glyph glyph-name="P" unicode="P" horiz-adv-x="617" 
d="M82 -26v721h258c163 0 239 -88 239 -206v-21c0 -117 -82 -213 -239 -213h-159v-281h-99zM334 609h-153v-268h142c104 0 156 42 156 129v18c0 82 -52 121 -145 121z" />
    <glyph glyph-name="Q" unicode="Q" horiz-adv-x="698" 
d="M349 -37c-172 0 -289 105 -289 317v109c0 210 118 317 289 317s289 -107 289 -317v-109c0 -95 -24 -169 -65 -221l85 -84l-59 -61l-90 89c-44 -26 -99 -40 -160 -40zM349 616c-110 0 -189 -69 -189 -238v-87c0 -169 79 -238 189 -238c33 0 64 6 90 20l-90 90l59 61
l93 -93c24 38 37 90 37 160v87c0 169 -78 238 -189 238z" />
    <glyph glyph-name="R" unicode="R" horiz-adv-x="645" 
d="M181 275v-301h-99v721h261c147 0 230 -83 230 -197v-26c0 -81 -44 -147 -121 -178l143 -320h-107l-130 301h-16h-161zM181 610v-251h138c112 0 155 45 155 116v20c0 70 -45 115 -145 115h-148z" />
    <glyph glyph-name="S" unicode="S" horiz-adv-x="616" 
d="M312 53c102 0 154 48 154 105v16c0 63 -41 95 -158 120c-136 29 -240 71 -240 201v18c0 98 81 193 247 193c88 0 159 -22 220 -63l-47 -77c-53 36 -106 51 -172 51c-90 0 -149 -46 -149 -103v-16c0 -66 59 -90 166 -114c178 -40 233 -103 233 -203v-18
c0 -132 -109 -200 -257 -200c-102 0 -191 37 -251 85l50 81c54 -41 142 -76 204 -76z" />
    <glyph glyph-name="T" unicode="T" horiz-adv-x="571" 
d="M335 -26h-99v636h-220v85h539v-85h-220v-636z" />
    <glyph glyph-name="U" unicode="U" horiz-adv-x="684" 
d="M511 695h99v-432c0 -218 -97 -300 -268 -300s-268 82 -268 300v432h99v-420c0 -162 54 -223 169 -223s169 61 169 223v420z" />
    <glyph glyph-name="V" unicode="V" horiz-adv-x="673" 
d="M20 695h108l209 -596l214 596h102l-272 -721h-93z" />
    <glyph glyph-name="W" unicode="W" horiz-adv-x="975" 
d="M848 695h99l-199 -721h-99l-160 589l-163 -589h-101l-197 721h104l148 -589l161 589h96l161 -589z" />
    <glyph glyph-name="X" unicode="X" horiz-adv-x="655" 
d="M613 695l-221 -349l233 -372h-117l-183 309l-183 -309h-112l233 376l-218 345h118l170 -284l169 284h111z" />
    <glyph glyph-name="Y" unicode="Y" horiz-adv-x="625" 
d="M609 695l-246 -431v-290h-99v290l-248 431h110l189 -337l184 337h110z" />
    <glyph glyph-name="Z" unicode="Z" horiz-adv-x="613" 
d="M560 695v-73l-414 -562h433v-86h-553v81l409 554h-385v86h510z" />
    <glyph glyph-name="bracketleft" unicode="[" horiz-adv-x="389" 
d="M349 -84v-86h-264v936h264v-86h-166v-764h166z" />
    <glyph glyph-name="backslash" unicode="\" horiz-adv-x="959" 
d="M36 340v61h102l-72 294h99l64 -294h137l74 294h89l70 -294h133l63 294h95l-72 -294h105v-61h-120l-88 -366h-90l-86 366h-112l-90 -366h-94l-90 366h-117zM242 340l51 -234l58 234h-109zM613 340l56 -234l50 234h-106zM485 575l-43 -174h83z" />
    <glyph glyph-name="bracketright" unicode="]" horiz-adv-x="389" 
d="M40 -170v86h166v764h-166v86h264v-936h-264z" />
    <glyph glyph-name="asciicircum" unicode="^" horiz-adv-x="524" 
d="M478 401h-94l-122 243l-122 -243h-94l171 323h91z" />
    <glyph glyph-name="underscore" unicode="_" horiz-adv-x="500" 
d="M500 -75v-65h-500v65h500z" />
    <glyph glyph-name="grave" unicode="`" horiz-adv-x="610" 
d="M417 565h-89l-136 148h116z" />
    <glyph glyph-name="a" unicode="a" horiz-adv-x="558" 
d="M230 -34c-110 0 -180 58 -180 154v27c0 93 59 158 199 158h139v32c0 73 -33 108 -113 108c-64 0 -106 -22 -157 -55l-48 72c53 37 118 69 206 69c122 0 208 -64 208 -174v-383h-93v66h-1c-10 -20 -30 -37 -51 -49c-29 -16 -61 -25 -109 -25zM388 169v54h-137
c-76 0 -106 -31 -106 -83v-14c0 -53 43 -76 95 -76c48 0 82 11 111 34c26 20 37 44 37 85z" />
    <glyph glyph-name="b" unicode="b" horiz-adv-x="596" 
d="M175 730v-272c35 54 96 73 156 73c138 0 214 -85 214 -233v-97c0 -148 -89 -235 -217 -235c-82 0 -130 33 -154 72h-2v-64h-94v756h97zM174 307v-138c0 -57 60 -118 144 -118c82 0 131 61 131 164v67c0 104 -50 164 -131 164c-79 0 -144 -54 -144 -139z" />
    <glyph glyph-name="c" unicode="c" horiz-adv-x="509" 
d="M286 531c90 0 144 -26 189 -60l-46 -73c-51 37 -90 47 -143 47c-72 0 -138 -47 -138 -159v-69c0 -118 68 -164 140 -164s115 21 154 50l47 -74c-38 -32 -102 -63 -202 -63c-151 0 -237 93 -237 250v69c0 157 93 246 236 246z" />
    <glyph glyph-name="d" unicode="d" horiz-adv-x="596" 
d="M425 42h-2c-30 -55 -91 -76 -159 -76c-138 0 -213 85 -213 233v97c0 148 89 235 217 235c83 0 131 -35 153 -67v266h97v-756h-93v68zM422 189v141c0 57 -60 116 -144 116c-82 0 -131 -61 -131 -164v-67c0 -104 50 -164 131 -164c79 0 144 53 144 138z" />
    <glyph glyph-name="e" unicode="e" horiz-adv-x="556" 
d="M285 448c-81 0 -139 -58 -139 -142v-14h274v18c0 84 -52 138 -135 138zM460 99l41 -73c-48 -33 -112 -60 -211 -60c-135 0 -240 75 -240 252v62c0 166 100 251 235 251c140 0 229 -89 229 -245v-73h-368v-4c0 -103 61 -159 148 -159c71 0 119 19 166 49z" />
    <glyph glyph-name="f" unicode="f" horiz-adv-x="375" 
d="M112 -26v464h-90v83h90v54c0 110 55 161 159 161c35 0 76 -6 98 -14l-15 -79c-25 7 -50 10 -74 10c-37 0 -71 -11 -71 -82v-50h144v-83h-144v-464h-97z" />
    <glyph glyph-name="g" unicode="g" horiz-adv-x="596" 
d="M518 521v-540c0 -153 -83 -230 -244 -230c-74 0 -137 23 -182 58l44 76c36 -27 87 -46 141 -46c94 0 144 45 144 142v67c-31 -52 -91 -72 -157 -72c-138 0 -213 85 -213 233v87c0 148 89 235 217 235c83 0 131 -35 153 -67v57h97zM422 199v131c0 57 -60 116 -144 116
c-82 0 -131 -61 -131 -164v-57c0 -104 50 -164 131 -164c79 0 144 53 144 138z" />
    <glyph glyph-name="h" unicode="h" horiz-adv-x="599" 
d="M529 336v-362h-97v340c0 92 -38 131 -119 131c-66 0 -138 -46 -138 -132v-339h-97v756h97v-275c33 49 88 76 162 76c106 0 192 -63 192 -195z" />
    <glyph glyph-name="i" unicode="i" horiz-adv-x="259" 
d="M81 521h97v-547h-97v547zM78 717h103v-106h-103v106z" />
    <glyph glyph-name="j" unicode="j" horiz-adv-x="276" 
d="M95 717h103v-106h-103v106zM195 521v-609c0 -110 -55 -161 -159 -161c-35 0 -76 6 -98 14l15 79c25 -7 50 -10 74 -10c37 0 71 11 71 82v605h97z" />
    <glyph glyph-name="k" unicode="k" horiz-adv-x="561" 
d="M534 521l-216 -219l229 -328h-122l-174 260l-76 -77v-183h-97v756h97v-455l234 246h125z" />
    <glyph glyph-name="l" unicode="l" horiz-adv-x="253" 
d="M78 730h97v-756h-97v756z" />
    <glyph glyph-name="m" unicode="m" horiz-adv-x="899" 
d="M829 333v-359h-97v328c0 95 -34 141 -103 141c-61 0 -127 -39 -127 -128v-341h-97v328c0 95 -34 141 -103 141c-60 0 -127 -37 -127 -123v-346h-97v547h96v-74h1c21 48 70 84 146 84c73 0 129 -33 157 -91c35 53 84 91 170 91c112 0 181 -72 181 -198z" />
    <glyph glyph-name="n" unicode="n" horiz-adv-x="599" 
d="M529 336v-362h-97v340c0 92 -38 131 -119 131c-66 0 -138 -46 -138 -132v-339h-97v547h94v-69h1c33 51 89 79 164 79c106 0 192 -63 192 -195z" />
    <glyph glyph-name="o" unicode="o" horiz-adv-x="588" 
d="M294 531c150 0 244 -91 244 -249v-67c0 -158 -94 -249 -244 -249s-244 91 -244 249v67c0 159 94 249 244 249zM294 51c87 0 146 56 146 172v51c0 116 -59 172 -146 172s-146 -56 -146 -172v-51c0 -116 59 -172 146 -172z" />
    <glyph glyph-name="p" unicode="p" horiz-adv-x="596" 
d="M172 521v-68c32 56 95 78 160 78c138 0 213 -89 213 -233v-97c0 -151 -88 -235 -219 -235c-81 0 -129 36 -151 68v-274h-97v761h94zM174 307v-138c0 -57 60 -118 144 -118c82 0 131 61 131 164v67c0 104 -50 164 -131 164c-79 0 -144 -54 -144 -139z" />
    <glyph glyph-name="q" unicode="q" horiz-adv-x="596" 
d="M518 -240h-97v278c-31 -52 -91 -72 -157 -72c-138 0 -213 85 -213 233v97c0 148 89 235 217 235c83 0 131 -35 153 -67v57h97v-761zM422 189v141c0 57 -60 116 -144 116c-82 0 -131 -61 -131 -164v-67c0 -104 50 -164 131 -164c79 0 144 53 144 138z" />
    <glyph glyph-name="r" unicode="r" horiz-adv-x="417" 
d="M405 520l-29 -94c-19 8 -41 13 -67 13c-72 0 -134 -60 -134 -146v-319h-97v547h94v-87h1c32 61 81 97 161 97c25 0 49 -4 71 -11z" />
    <glyph glyph-name="s" unicode="s" horiz-adv-x="498" 
d="M248 50c72 0 114 27 114 71v8c0 46 -22 61 -125 82c-121 25 -188 64 -188 160v12c0 76 62 148 204 148c74 0 140 -16 194 -54l-43 -73c-36 27 -89 44 -144 44c-81 0 -114 -28 -114 -66v-9c0 -43 33 -59 118 -75c133 -25 196 -65 196 -166v-13c0 -86 -81 -153 -208 -153
c-91 0 -168 26 -220 66l45 76c49 -33 105 -58 171 -58z" />
    <glyph glyph-name="t" unicode="t" horiz-adv-x="389" 
d="M112 127v311h-90v83h90v138h97v-138h144v-83h-144v-311c0 -67 29 -78 70 -78c24 0 47 4 72 13l15 -78c-22 -9 -63 -18 -102 -18c-104 0 -152 51 -152 161z" />
    <glyph glyph-name="u" unicode="u" horiz-adv-x="595" 
d="M70 159v362h97v-340c0 -92 36 -131 117 -131c66 0 136 46 136 132v339h97v-547h-94v69h-1c-33 -51 -87 -79 -162 -79c-106 0 -190 63 -190 195z" />
    <glyph glyph-name="v" unicode="v" horiz-adv-x="516" 
d="M259 65h2l143 456h102l-185 -547h-124l-187 547h105z" />
    <glyph glyph-name="w" unicode="w" horiz-adv-x="765" 
d="M384 400h-2l-110 -426h-114l-142 547h102l100 -446h2l116 446h98l115 -446h2l102 446h96l-140 -547h-114z" />
    <glyph glyph-name="x" unicode="x" horiz-adv-x="525" 
d="M498 521l-173 -263l180 -284h-117l-127 220l-130 -220h-111l183 284l-174 263h117l121 -202l123 202h108z" />
    <glyph glyph-name="y" unicode="y" horiz-adv-x="520" 
d="M260 84h4l144 437h102l-284 -773l-88 31l71 187l-199 555h105z" />
    <glyph glyph-name="z" unicode="z" horiz-adv-x="493" 
d="M448 521v-75l-300 -388h315v-84h-438v70l304 392h-284v85h403z" />
    <glyph glyph-name="braceleft" unicode="{" horiz-adv-x="449" 
d="M40 268v85c73 1 106 23 106 80v188c0 98 54 145 156 145h107v-86h-91c-57 0 -74 -18 -74 -86v-161c0 -47 -13 -107 -83 -123c68 -15 83 -73 83 -123v-192c0 -68 19 -79 74 -79h91v-86h-107c-102 0 -156 41 -156 138v218c0 58 -33 81 -106 82z" />
    <glyph glyph-name="bar" unicode="|" horiz-adv-x="294" 
d="M194 765v-935h-94v935h94z" />
    <glyph glyph-name="braceright" unicode="}" horiz-adv-x="449" 
d="M409 353v-85c-73 -1 -106 -24 -106 -82v-218c0 -97 -54 -138 -156 -138h-107v86h91c55 0 74 11 74 79v192c0 50 15 108 83 123c-70 16 -83 76 -83 123v161c0 68 -17 86 -74 86h-91v86h107c102 0 156 -47 156 -145v-188c0 -57 33 -79 106 -80z" />
    <glyph glyph-name="asciitilde" unicode="~" horiz-adv-x="600" 
d="M394 232c-98 0 -127 94 -186 94c-41 0 -58 -59 -63 -97h-87c8 100 62 181 149 181c97 0 126 -94 188 -94c40 0 57 36 64 97h85c-8 -110 -60 -181 -150 -181z" />
    <glyph glyph-name="uni20A9" unicode="&#x20a9;" horiz-adv-x="959" 
d="M36 340v61h102l-72 294h99l64 -294h137l74 294h89l70 -294h133l63 294h95l-72 -294h105v-61h-120l-88 -366h-90l-86 366h-112l-90 -366h-94l-90 366h-117zM242 340l51 -234l58 234h-109zM613 340l56 -234l50 234h-106zM485 575l-43 -174h83z" />
    <glyph glyph-name="uni2010" unicode="&#x2010;" horiz-adv-x="419" 
d="M30 244v93h359v-93h-359z" />
    <glyph glyph-name="copyright" unicode="&#xa9;" horiz-adv-x="824" 
d="M419 19c181 0 309 132 309 316c0 185 -130 315 -309 315c-178 0 -307 -130 -307 -315c0 -184 129 -316 307 -316zM419 -33c-215 0 -365 165 -365 368s150 367 365 367c218 0 367 -164 367 -367s-150 -368 -367 -368zM428 545c73 0 112 -22 145 -47l-41 -64
c-38 28 -64 35 -104 35c-43 0 -94 -24 -94 -107v-52c0 -87 54 -112 95 -112c52 0 84 14 113 36l41 -65c-27 -24 -79 -47 -155 -47c-117 0 -181 70 -181 187v52c0 117 70 184 181 184z" />
    <glyph glyph-name="Korea1.99" horiz-adv-x="725" 
d="M116 369v267h-96v59h268v-59h-96v-267h-76zM322 369v326h92l84 -188h3l87 188h90v-326h-71v230h-1l-78 -166h-59l-80 172h-2v-236h-65z" />
    <glyph glyph-name="Korea1.100" horiz-adv-x="910" 
d="M130 -67v115h114v-115h-114zM398 -67v115h114v-115h-114zM666 -67v115h114v-115h-114z" />
    <glyph glyph-name="uni3164" unicode="&#x3164;" horiz-adv-x="910" 
 />
    <glyph glyph-name="uni3001" unicode="&#x3001;" horiz-adv-x="910" 
d="M327 -48l-75 -68c-67 91 -116 142 -196 205l68 62c85 -64 133 -111 203 -199z" />
    <glyph glyph-name="uni3002" unicode="&#x3002;" horiz-adv-x="910" 
d="M174 -49c52 0 86 39 86 87c0 47 -34 87 -86 87c-53 0 -85 -40 -85 -87c0 -48 32 -87 85 -87zM174 -110c-88 0 -149 65 -149 148c0 82 61 147 149 147c89 0 149 -65 149 -147c0 -83 -61 -148 -149 -148z" />
    <glyph glyph-name="uni30FB" unicode="&#x30fb;" horiz-adv-x="910" 
d="M398 245v115h114v-115h-114z" />
    <glyph glyph-name="twodotenleader" unicode="&#x2025;" horiz-adv-x="910" 
d="M255 245v115h114v-115h-114zM540 245v115h114v-115h-114z" />
    <glyph glyph-name="uni22EF" unicode="&#x22ef;" horiz-adv-x="910" 
d="M130 245v115h114v-115h-114zM398 245v115h114v-115h-114zM666 245v115h114v-115h-114z" />
    <glyph glyph-name="dieresis" unicode="&#xa8;" horiz-adv-x="509" 
d="M123 588v92h88v-92h-88zM298 588v92h88v-92h-88z" />
    <glyph glyph-name="uni3003" unicode="&#x3003;" horiz-adv-x="910" 
d="M434 134l116 314h111l-157 -314h-70zM364 448h111l-156 -314h-70z" />
    <glyph glyph-name="endash" unicode="&#x2013;" horiz-adv-x="425" 
d="M425 349v-70h-425v70h425z" />
    <glyph glyph-name="emdash" unicode="&#x2014;" horiz-adv-x="850" 
d="M850 349v-70h-850v70h850z" />
    <glyph glyph-name="uni2016" unicode="&#x2016;" horiz-adv-x="910" 
d="M571 780v-960h-57v960h57zM395 780v-960h-56v960h56z" />
    <glyph glyph-name="uniFF3C" unicode="&#xff3c;" horiz-adv-x="910" 
d="M72 758l796 -881l-31 -31l-795 879z" />
    <glyph glyph-name="uniFF5E" unicode="&#xff5e;" horiz-adv-x="910" 
d="M701 366l41 -27c-30 -49 -93 -94 -151 -94c-57 0 -93 12 -136 35c-34 18 -83 41 -136 41c-49 0 -85 -26 -110 -63l-41 27c30 49 93 94 151 94c57 0 94 -12 136 -35s83 -41 136 -41c49 0 85 26 110 63z" />
    <glyph glyph-name="quoteleft" unicode="&#x2018;" horiz-adv-x="200" 
d="M180 773l-42 -228h-110l75 228h77z" />
    <glyph glyph-name="quoteright" unicode="&#x2019;" horiz-adv-x="200" 
d="M20 530l42 228h110l-75 -228h-77z" />
    <glyph glyph-name="quotedblleft" unicode="&#x201c;" horiz-adv-x="350" 
d="M328 773l-42 -228h-107l75 228h74zM184 773l-42 -228h-107l75 228h74z" />
    <glyph glyph-name="quotedblright" unicode="&#x201d;" horiz-adv-x="350" 
d="M22 530l42 228h107l-75 -228h-74zM166 530l42 228h107l-75 -228h-74z" />
    <glyph glyph-name="uni3014" unicode="&#x3014;" horiz-adv-x="344" 
d="M104 26l207 -117l-32 -55l-242 134v626l242 135l32 -55l-207 -116v-552z" />
    <glyph glyph-name="uni3015" unicode="&#x3015;" horiz-adv-x="358" 
d="M313 614v-626l-241 -134l-32 55l206 116v553l-206 116l32 55z" />
    <glyph glyph-name="uni3008" unicode="&#x3008;" horiz-adv-x="467" 
d="M112 301l315 -399l-45 -35l-341 434l340 434l46 -34z" />
    <glyph glyph-name="uni3009" unicode="&#x3009;" horiz-adv-x="477" 
d="M90 735l341 -434l-340 -434l-47 35l315 399l-315 400z" />
    <glyph glyph-name="uni300A" unicode="&#x300a;" horiz-adv-x="489" 
d="M214 301l245 -425l-47 -27l-262 452l262 453l47 -28zM92 301l246 -425l-48 -27l-261 452l261 453l48 -28z" />
    <glyph glyph-name="uni300B" unicode="&#x300b;" horiz-adv-x="490" 
d="M195 754l262 -453l-262 -452l-47 27l246 425c-39 69 -207 357 -246 425zM74 754l261 -453l-261 -452l-48 27l246 425c-39 69 -206 357 -246 425z" />
    <glyph glyph-name="uni300C" unicode="&#x300c;" horiz-adv-x="351" 
d="M326 769v-68h-222v-367h-79v435h301z" />
    <glyph glyph-name="uni300D" unicode="&#x300d;" horiz-adv-x="351" 
d="M326 268v-435h-301v68h222v367h79z" />
    <glyph glyph-name="uni300E" unicode="&#x300e;" horiz-adv-x="371" 
d="M117 687h169v32h-206v-336h37v304zM338 769v-131h-168v-304h-142v435h310z" />
    <glyph glyph-name="uni300F" unicode="&#x300f;" horiz-adv-x="366" 
d="M80 -117h206v337h-38v-304h-168v-33zM338 269v-435h-310v131h168v304h142z" />
    <glyph glyph-name="uni3010" unicode="&#x3010;" horiz-adv-x="374" 
d="M361 -130h-338v861h337c-145 -94 -240 -255 -240 -432c0 -176 95 -336 241 -429z" />
    <glyph glyph-name="uni3011" unicode="&#x3011;" horiz-adv-x="382" 
d="M355 731v-862h-338c145 93 241 254 241 430c0 177 -96 338 -241 432h338z" />
    <glyph glyph-name="plusminus" unicode="&#xb1;" horiz-adv-x="610" 
d="M48 112h513v-84h-513v84zM255 650h90v-201h207v-84h-207v-215h-90v215h-207v84h207v201z" />
    <glyph glyph-name="multiply" unicode="&#xd7;" horiz-adv-x="610" 
d="M64 123l184 195l-184 195l54 53l184 -195l184 195l54 -53l-184 -195l184 -195l-54 -53l-184 195l-184 -195z" />
    <glyph glyph-name="divide" unicode="&#xf7;" horiz-adv-x="610" 
d="M48 276v84h504v-84h-504zM250 468v97h99v-97h-99zM250 71v97h99v-97h-99z" />
    <glyph glyph-name="notequal" unicode="&#x2260;" horiz-adv-x="610" 
d="M74 383v85h281l81 124h80l-81 -124h101v-85h-157l-82 -126h239v-85h-295l-79 -122h-80l79 122h-87v85h143l82 126h-225z" />
    <glyph glyph-name="lessequal" unicode="&#x2264;" horiz-adv-x="610" 
d="M541 244v-93l-475 209v85l475 208v-91l-371 -158v-1zM541 38h-472v81h472v-81z" />
    <glyph glyph-name="greaterequal" unicode="&#x2265;" horiz-adv-x="610" 
d="M66 151v93l371 159v1l-371 158v91l475 -208v-85zM538 38h-472v81h472v-81z" />
    <glyph glyph-name="infinity" unicode="&#x221e;" horiz-adv-x="610" 
d="M154 222c52 0 75 41 114 80c-29 32 -58 81 -112 81c-51 0 -79 -32 -79 -81c0 -48 29 -80 77 -80zM458 222c46 0 76 32 76 80c0 52 -27 81 -77 81c-41 0 -69 -38 -104 -80c33 -36 66 -81 105 -81zM454 158c-66 0 -106 52 -144 100c-44 -57 -85 -100 -161 -100
c-86 0 -140 54 -140 144c0 83 57 144 148 144c78 0 110 -44 155 -98c43 46 71 98 150 98c85 0 139 -54 139 -144c0 -82 -56 -144 -147 -144z" />
    <glyph glyph-name="therefore" unicode="&#x2234;" horiz-adv-x="610" 
d="M188 133c0 -37 -30 -67 -67 -67c-36 0 -67 30 -67 67c0 35 31 66 67 66c37 0 67 -31 67 -66zM556 133c0 -37 -32 -67 -67 -67c-38 0 -67 30 -67 67c0 35 29 66 67 66c35 0 67 -31 67 -66zM366 505c0 -36 -30 -68 -66 -68s-68 32 -68 68s32 66 68 66s66 -30 66 -66z" />
    <glyph glyph-name="degree" unicode="&#xb0;" horiz-adv-x="312" 
d="M280 609c0 -68 -49 -124 -124 -124s-124 56 -124 124s49 124 124 124s124 -56 124 -124zM219 609c0 36 -24 66 -63 66s-63 -30 -63 -66s24 -66 63 -66s63 30 63 66z" />
    <glyph glyph-name="minute" unicode="&#x2032;" horiz-adv-x="428" 
d="M120 480l80 255h108l-135 -255h-53z" />
    <glyph glyph-name="second" unicode="&#x2033;" horiz-adv-x="595" 
d="M288 480l80 255h107l-135 -255h-52zM120 480l80 255h107l-135 -255h-52z" />
    <glyph glyph-name="uni2103" unicode="&#x2103;" horiz-adv-x="833" 
d="M739 131l54 -76c-72 -69 -158 -92 -255 -92c-172 0 -289 105 -289 317v109c0 210 118 317 289 317c99 0 171 -24 238 -77l-51 -81c-65 53 -122 66 -187 66c-109 0 -189 -73 -189 -238v-83c0 -165 80 -238 189 -238c69 0 141 17 201 76zM249 625c0 -51 -40 -93 -98 -93
s-98 42 -98 93s40 93 98 93s98 -42 98 -93zM107 624c0 -26 17 -46 44 -46c26 0 43 20 43 46c0 27 -17 47 -43 47c-27 0 -44 -20 -44 -47z" />
    <glyph glyph-name="uni212B" unicode="&#x212b;" horiz-adv-x="673" 
d="M434 713c0 -27 -12 -52 -31 -69l250 -670h-104l-76 212h-276l-76 -212h-101l248 669c-19 17 -31 43 -31 70c0 52 42 95 98 95c57 0 99 -43 99 -95zM288 440l-61 -169h216l-60 169c-22 60 -28 79 -48 145c-20 -67 -26 -85 -47 -145zM335 663c30 0 50 19 50 50
c0 30 -20 51 -50 51c-29 0 -49 -21 -49 -51c0 -31 20 -50 49 -50z" />
    <glyph glyph-name="uniFFE0" unicode="&#xffe0;" horiz-adv-x="509" 
d="M263 602v93h55v-94c68 -6 112 -29 151 -58l-46 -70c-38 27 -70 39 -105 44v-364c51 6 86 24 118 48l47 -71c-33 -28 -86 -55 -165 -62v-94h-55v93c-138 7 -219 91 -219 240v60c0 148 87 229 219 235zM140 368v-60c0 -108 58 -150 123 -156v366c-66 -6 -123 -47 -123 -150
z" />
    <glyph glyph-name="uniFFE1" unicode="&#xffe1;" horiz-adv-x="531" 
d="M53 302v70h70v92c0 166 104 243 234 243c63 0 118 -16 147 -35l-33 -81c-37 19 -68 25 -107 25c-75 0 -142 -34 -142 -156v-88h205v-70h-205v-68c0 -92 -10 -132 -55 -173v-2h344v-85h-473v70c61 36 85 87 85 185v73h-70z" />
    <glyph glyph-name="uniFFE5" unicode="&#xffe5;" horiz-adv-x="580" 
d="M244 -26v143h-167v75h167v53h-167v75h149l-206 368h103l169 -319h5l169 319h94l-206 -368h151v-75h-168v-53h168v-75h-168v-143h-93z" />
    <glyph glyph-name="male" unicode="&#x2642;" horiz-adv-x="776" 
d="M123 262c0 -113 87 -208 203 -208c113 0 203 95 203 208s-90 208 -203 208c-116 0 -203 -95 -203 -208zM49 262c0 153 122 277 277 277c65 0 122 -21 170 -58l115 114h-105v68h222v-221h-69v106l-115 -116c37 -47 59 -105 59 -170c0 -153 -124 -277 -277 -277
c-155 0 -277 124 -277 277z" />
    <glyph glyph-name="female" unicode="&#x2640;" horiz-adv-x="652" 
d="M123 462c0 -113 87 -208 203 -208c113 0 203 95 203 208s-90 208 -203 208c-116 0 -203 -95 -203 -208zM290 59v128c-136 18 -241 131 -241 275c0 153 122 277 277 277c153 0 277 -124 277 -277c0 -144 -106 -258 -242 -275v-128h141v-69h-141v-139h-71v139h-141v69h141z
" />
    <glyph glyph-name="angle" unicode="&#x2220;" horiz-adv-x="910" 
d="M760 70v-70h-611v49l471 549l56 -47l-417 -481h501z" />
    <glyph glyph-name="perpendicular" unicode="&#x22a5;" horiz-adv-x="910" 
d="M774 71v-71h-638v71h282v504h73v-504h283z" />
    <glyph glyph-name="uni2312" unicode="&#x2312;" horiz-adv-x="910" 
d="M718 574h-72c-33 61 -96 110 -190 110c-95 0 -159 -49 -193 -110h-72c51 96 134 162 263 162c131 0 212 -66 264 -162z" />
    <glyph glyph-name="partialdiff" unicode="&#x2202;" horiz-adv-x="532" 
d="M234 63c88 0 150 101 164 213c-18 49 -70 95 -139 95c-78 0 -142 -73 -142 -170c0 -86 49 -138 117 -138zM86 611l-29 62c35 23 90 54 174 54c140 0 266 -126 266 -355c0 -254 -129 -383 -272 -383c-136 0 -200 104 -200 210c0 136 95 245 219 245c83 0 141 -48 163 -87
h1c1 10 1 22 1 32c0 173 -91 262 -185 262c-63 0 -107 -21 -138 -40z" />
    <glyph glyph-name="gradient" unicode="&#x2207;" horiz-adv-x="910" 
d="M61 599h788l-394 -624zM455 87l282 453h-565z" />
    <glyph glyph-name="equivalence" unicode="&#x2261;" horiz-adv-x="610" 
d="M564 284h-519v62h519v-62zM564 435h-519v61h519v-61zM564 133h-519v61h519v-61z" />
    <glyph glyph-name="uni2252" unicode="&#x2252;" horiz-adv-x="610" 
d="M372 86c0 34 29 63 63 63s62 -29 62 -63s-28 -63 -62 -63s-63 29 -63 63zM110 538c0 34 29 63 62 63c34 0 63 -29 63 -63s-29 -62 -63 -62c-33 0 -62 28 -62 62zM45 363v62h519v-62h-519zM45 201v63h519v-63h-519z" />
    <glyph glyph-name="section" unicode="&#xa7;" horiz-adv-x="518" 
d="M303 348l-101 31c-55 -10 -84 -41 -84 -87c0 -50 23 -74 85 -93l110 -34c55 12 84 44 84 88c0 51 -23 73 -94 95zM239 -161c-73 0 -126 14 -171 40v74c48 -19 85 -36 161 -36c85 0 125 31 125 85c0 50 -18 67 -89 89l-90 28c-83 26 -145 69 -145 165c0 69 36 109 98 131
c-31 26 -50 64 -50 121c0 97 69 165 202 165c75 0 113 -18 146 -35v-74c-31 14 -80 31 -144 31c-72 0 -116 -27 -116 -77s13 -70 71 -88l99 -31c100 -31 152 -66 152 -167c0 -72 -37 -111 -97 -133c37 -26 55 -63 55 -117c0 -110 -77 -171 -207 -171z" />
    <glyph glyph-name="uni203B" unicode="&#x203b;" horiz-adv-x="910" 
d="M824 625l-325 -319l328 -317l-56 -54l-323 321c-107 -108 -215 -214 -322 -321l-54 53c108 106 218 211 326 317l-324 319l51 55l323 -323l325 323zM224 304c0 -39 -35 -76 -79 -76c-40 0 -79 36 -79 76c0 43 38 78 78 78c42 0 80 -35 80 -78zM523 606
c0 -40 -36 -77 -78 -77s-79 37 -79 77c0 42 36 77 78 77c43 0 79 -35 79 -77zM843 304c0 -40 -36 -75 -79 -75c-41 0 -78 35 -78 75c0 44 36 78 77 78c43 0 80 -34 80 -78zM523 -6c0 -40 -34 -75 -78 -75c-42 0 -78 35 -78 75c0 43 35 77 77 77c43 0 79 -34 79 -77z" />
    <glyph glyph-name="uni2606" unicode="&#x2606;" horiz-adv-x="910" 
d="M529 387l-73 217l-72 -217h-233l187 -139l-73 -218l191 133l186 -133l-68 218l185 139h-230zM457 758l109 -322h340l-276 -205l104 -325l-277 196l-282 -196l106 325l-278 205h346z" />
    <glyph glyph-name="uni2605" unicode="&#x2605;" horiz-adv-x="910" 
d="M457 758l109 -322h340l-276 -205l104 -325l-277 196l-282 -196l106 325l-278 205h346z" />
    <glyph glyph-name="circle" unicode="&#x25cb;" horiz-adv-x="910" 
d="M156 334c0 -165 134 -299 299 -299c167 0 299 134 299 299s-132 299 -299 299c-165 0 -299 -134 -299 -299zM93 334c0 199 162 362 362 362c201 0 362 -163 362 -362c0 -201 -161 -363 -362 -363c-200 0 -362 162 -362 363z" />
    <glyph glyph-name="H18533" unicode="&#x25cf;" horiz-adv-x="910" 
d="M93 334c0 199 162 362 362 362c201 0 362 -163 362 -362c0 -201 -161 -363 -362 -363c-200 0 -362 162 -362 363z" />
    <glyph glyph-name="uni25CE" unicode="&#x25ce;" horiz-adv-x="910" 
d="M299 334c0 -86 70 -156 156 -156s156 70 156 156c0 84 -70 156 -156 156s-156 -72 -156 -156zM240 334c0 118 96 215 215 215s215 -97 215 -215c0 -119 -96 -215 -215 -215s-215 96 -215 215zM158 334c0 -164 133 -297 297 -297c166 0 298 133 298 297
c0 163 -132 298 -298 298c-164 0 -297 -135 -297 -298zM93 334c0 199 162 362 362 362c201 0 362 -163 362 -362c0 -201 -161 -363 -362 -363c-200 0 -362 162 -362 363z" />
    <glyph glyph-name="uni25C7" unicode="&#x25c7;" horiz-adv-x="910" 
d="M756 333l-301 302l-303 -301l303 -304zM62 333l393 393l392 -393l-392 -393z" />
    <glyph glyph-name="uni25C6" unicode="&#x25c6;" horiz-adv-x="910" 
d="M456 -60l-394 394l393 392l393 -393z" />
    <glyph glyph-name="H22073" unicode="&#x25a1;" horiz-adv-x="910" 
d="M739 617h-567v-566h567v566zM108 -14v694h694v-694h-694z" />
    <glyph glyph-name="filledbox" unicode="&#x25a0;" horiz-adv-x="910" 
d="M802 -14h-695v694h695v-694z" />
    <glyph glyph-name="uni25B3" unicode="&#x25b3;" horiz-adv-x="910" 
d="M178 9h549l-274 548zM826 -48h-743l372 738z" />
    <glyph glyph-name="triagup" unicode="&#x25b2;" horiz-adv-x="910" 
d="M825 -53h-741l371 738z" />
    <glyph glyph-name="uni25BD" unicode="&#x25bd;" horiz-adv-x="910" 
d="M729 605h-549l275 -548zM83 663h743l-371 -738z" />
    <glyph glyph-name="triagdn" unicode="&#x25bc;" horiz-adv-x="910" 
d="M84 663h741l-370 -738z" />
    <glyph glyph-name="arrowright" unicode="&#x2192;" horiz-adv-x="910" 
d="M104 314v59h553l-75 127l15 17l208 -173l-208 -173l-15 17l75 126h-553z" />
    <glyph glyph-name="arrowleft" unicode="&#x2190;" horiz-adv-x="910" 
d="M805 373v-59h-553l75 -126l-15 -17l-208 173l208 173l15 -17l-75 -127h553z" />
    <glyph glyph-name="arrowup" unicode="&#x2191;" horiz-adv-x="910" 
d="M484 0h-58v553l-127 -75l-17 15l173 208l173 -208l-17 -15l-127 75v-553z" />
    <glyph glyph-name="arrowdown" unicode="&#x2193;" horiz-adv-x="910" 
d="M426 687h58v-552l127 74l17 -15l-173 -208l-173 208l17 15l127 -74v552z" />
    <glyph glyph-name="arrowboth" unicode="&#x2194;" horiz-adv-x="910" 
d="M207 314l75 -126l-15 -17l-208 173l208 173l15 -17l-75 -127h496l-75 127l15 17l208 -173l-208 -173l-15 17l75 126h-496z" />
    <glyph glyph-name="uni3013" unicode="&#x3013;" horiz-adv-x="910" 
d="M779 429v-38h-648v38h648zM779 233v-38h-648v38h648z" />
    <glyph glyph-name="guillemotleft" unicode="&#xab;" horiz-adv-x="910" 
d="M378 303l438 -286l-31 -51l-482 314v45l474 324l37 -49zM169 302l439 -288l-34 -52l-480 318v45l473 328l36 -51z" />
    <glyph glyph-name="guillemotright" unicode="&#xbb;" horiz-adv-x="910" 
d="M816 325v-45l-480 -318l-33 52l438 288l-434 300l37 51zM608 325v-45l-482 -314l-32 51l438 285l-435 298l37 49z" />
    <glyph glyph-name="radical" unicode="&#x221a;" horiz-adv-x="562" 
d="M580 800l-230 -922h-66l-159 427l-75 -31l-19 48l140 58l141 -407h2l198 827h68z" />
    <glyph glyph-name="uni223D" unicode="&#x223d;" horiz-adv-x="910" 
d="M829 316c0 -102 -77 -190 -183 -190c-43 0 -83 16 -122 45l32 52c30 -22 58 -32 90 -32c68 0 116 54 116 125c0 62 -46 123 -115 123c-72 0 -115 -48 -160 -133c-32 -61 -90 -179 -225 -179c-90 0 -181 64 -181 189c0 120 88 187 180 187c46 0 88 -18 125 -42l-33 -53
c-28 17 -57 29 -85 29c-72 0 -119 -50 -119 -121c0 -73 43 -122 118 -122c96 0 145 99 174 155c40 80 103 154 204 154c107 0 184 -89 184 -187z" />
    <glyph glyph-name="proportional" unicode="&#x221d;" horiz-adv-x="910" 
d="M301 194c80 0 126 65 156 121c-30 54 -77 122 -156 122c-71 0 -118 -51 -118 -121c0 -74 43 -122 118 -122zM795 460l-34 -53c-27 18 -56 32 -82 32c-69 0 -112 -47 -154 -124c41 -78 85 -124 154 -124c22 0 51 9 76 22l27 -56c-34 -20 -70 -31 -103 -31
c-86 0 -148 60 -189 125c-36 -58 -90 -124 -192 -124c-90 0 -184 63 -184 189c0 120 91 187 183 187c101 0 157 -66 193 -125c40 66 102 125 189 125c39 0 79 -16 116 -43z" />
    <glyph glyph-name="uni2235" unicode="&#x2235;" horiz-adv-x="586" 
d="M408 506c0 35 31 65 66 65c38 0 65 -30 65 -65c0 -36 -27 -65 -65 -65c-35 0 -66 29 -66 65zM44 506c0 35 30 65 65 65c38 0 66 -30 66 -65c0 -36 -28 -65 -66 -65c-35 0 -65 29 -65 65zM227 126c0 38 29 66 65 66c37 0 66 -28 66 -66c0 -34 -29 -65 -66 -65
c-36 0 -65 31 -65 65z" />
    <glyph glyph-name="integral" unicode="&#x222b;" horiz-adv-x="318" 
d="M308 774l-11 -59c-9 2 -20 4 -31 4c-17 0 -35 -7 -46 -22c-19 -25 -27 -68 -27 -156c0 -146 12 -317 12 -469c0 -97 -19 -156 -43 -188c-23 -33 -58 -50 -97 -50c-23 0 -46 5 -55 11l11 59c10 -2 22 -5 36 -5c17 0 32 6 45 20c16 22 29 58 29 153c0 153 -12 328 -12 475
c0 101 17 158 54 197c23 26 55 37 90 37c18 0 36 -3 45 -7z" />
    <glyph glyph-name="uni222C" unicode="&#x222c;" horiz-adv-x="555" 
d="M537 774l-12 -59c-9 2 -19 4 -30 4c-18 0 -35 -7 -46 -22c-20 -25 -28 -68 -28 -156c0 -146 12 -317 12 -469c0 -97 -18 -156 -43 -188c-22 -33 -58 -50 -97 -50c-23 0 -45 5 -55 11l12 59c9 -2 21 -5 36 -5c16 0 32 6 44 20c17 22 30 58 30 153c0 153 -13 328 -13 475
c0 101 18 158 54 197c24 26 56 37 90 37c19 0 36 -3 46 -7zM308 774l-11 -59c-9 2 -20 4 -31 4c-17 0 -35 -7 -46 -22c-19 -25 -27 -68 -27 -156c0 -146 12 -317 12 -469c0 -97 -19 -156 -43 -188c-23 -33 -58 -50 -97 -50c-23 0 -46 5 -55 11l11 59c10 -2 22 -5 36 -5
c17 0 32 6 45 20c16 22 29 58 29 153c0 153 -12 328 -12 475c0 101 17 158 54 197c23 26 55 37 90 37c18 0 36 -3 45 -7z" />
    <glyph glyph-name="element" unicode="&#x2208;" horiz-adv-x="910" 
d="M795 355v-73h-602c13 -83 72 -142 202 -142h402v-73h-398c-198 0 -287 113 -287 252c0 131 84 239 283 239h402v-73h-402c-129 0 -187 -58 -201 -130h601z" />
    <glyph glyph-name="suchthat" unicode="&#x220b;" horiz-adv-x="910" 
d="M114 282v73h600c-15 72 -72 129 -199 129h-403v74h403c199 0 282 -109 282 -239c0 -138 -89 -252 -287 -252h-398v74h403c128 0 188 59 200 141h-601z" />
    <glyph glyph-name="reflexsubset" unicode="&#x2286;" horiz-adv-x="910" 
d="M795 63v-74h-647v74h647zM797 611v-74h-402c-150 0 -204 -68 -204 -153c0 -94 57 -160 204 -160h402v-74h-398c-198 0 -287 103 -287 237c0 125 84 224 283 224h402z" />
    <glyph glyph-name="reflexsuperset" unicode="&#x2287;" horiz-adv-x="910" 
d="M112 537v74h403c199 0 282 -99 282 -224c0 -134 -89 -237 -287 -237h-398v74h403c146 0 203 66 203 160c0 85 -53 153 -203 153h-403zM114 -11v74h647v-74h-647z" />
    <glyph glyph-name="propersubset" unicode="&#x2282;" horiz-adv-x="910" 
d="M797 555v-74h-402c-150 0 -204 -76 -204 -165c0 -98 57 -172 204 -172h402v-74h-398c-198 0 -287 111 -287 249c0 130 84 236 283 236h402z" />
    <glyph glyph-name="propersuperset" unicode="&#x2283;" horiz-adv-x="910" 
d="M112 481v74h403c199 0 282 -106 282 -236c0 -138 -89 -249 -287 -249h-398v74h403c146 0 203 74 203 172c0 89 -53 165 -203 165h-403z" />
    <glyph glyph-name="union" unicode="&#x222a;" horiz-adv-x="910" 
d="M208 636h78v-403c0 -149 76 -207 165 -207c98 0 172 61 172 207v403h78v-398c0 -198 -115 -287 -253 -287c-130 0 -240 83 -240 282v403z" />
    <glyph glyph-name="intersection" unicode="&#x2229;" horiz-adv-x="910" 
d="M455 636c139 0 245 -89 245 -287v-398h-78v403c0 146 -69 210 -167 210c-99 0 -168 -64 -168 -210v-403h-78v398c0 198 106 287 246 287z" />
    <glyph glyph-name="logicaland" unicode="&#x2227;" horiz-adv-x="910" 
d="M482 591l294 -568l-57 -28l-264 510l-265 -510l-57 28l294 568h55z" />
    <glyph glyph-name="logicalor" unicode="&#x2228;" horiz-adv-x="910" 
d="M719 599l57 -28l-294 -568h-55l-294 568l57 28l265 -511z" />
    <glyph glyph-name="uniFFE2" unicode="&#xffe2;" horiz-adv-x="910" 
d="M882 161v-315h-62v254h-793v61h855z" />
    <glyph glyph-name="arrowdblright" unicode="&#x21d2;" horiz-adv-x="910" 
d="M646 564l264 -265l-264 -266l-38 38l112 111h-720v52h771l66 65l-66 66h-771v52h719l-111 110z" />
    <glyph glyph-name="arrowdblboth" unicode="&#x21d4;" horiz-adv-x="910" 
d="M772 234l66 65l-66 66h-634l-66 -66l66 -65h634zM647 564l264 -265l-264 -266l-38 38l112 111h-532l112 -111l-38 -38l-264 266l264 265l38 -37l-111 -110h530l-111 110z" />
    <glyph glyph-name="universal" unicode="&#x2200;" horiz-adv-x="910" 
d="M407 -26l-269 721h104l76 -212h276l76 212h101l-268 -721h-96zM503 229l61 169h-216l60 -169c22 -60 28 -79 48 -145c20 67 26 85 47 145z" />
    <glyph glyph-name="existential" unicode="&#x2203;" horiz-adv-x="910" 
d="M234 695h449v-721h-456v85h357v242h-329v85h329v224h-350v85z" />
    <glyph glyph-name="acute" unicode="&#xb4;" horiz-adv-x="610" 
d="M281 565h-89l109 148h116z" />
    <glyph glyph-name="tilde" unicode="&#x2dc;" horiz-adv-x="610" 
d="M213 577h-62c8 78 54 111 99 111c44 0 80 -36 109 -36c19 0 32 13 37 38h62c-8 -78 -55 -111 -99 -111s-80 36 -109 36c-20 0 -32 -12 -37 -38z" />
    <glyph glyph-name="caron" unicode="&#x2c7;" horiz-adv-x="610" 
d="M265 560l-105 148h72l73 -80l72 80h72l-105 -148h-79z" />
    <glyph glyph-name="breve" unicode="&#x2d8;" horiz-adv-x="610" 
d="M305 571c-78 0 -131 48 -136 125h69c7 -39 24 -64 67 -64c44 0 61 25 67 64h69c-3 -77 -57 -125 -136 -125z" />
    <glyph glyph-name="hungarumlaut" unicode="&#x2dd;" horiz-adv-x="610" 
d="M313 560l49 149h97l-71 -149h-75zM150 560l50 149h98l-71 -149h-77z" />
    <glyph glyph-name="ring" unicode="&#x2da;" horiz-adv-x="610" 
d="M304 593c30 0 50 19 50 50c0 30 -20 51 -50 51c-29 0 -49 -21 -49 -51c0 -31 20 -50 49 -50zM304 548c-56 0 -98 44 -98 95c0 52 42 95 98 95c57 0 99 -43 99 -95c0 -51 -42 -95 -99 -95z" />
    <glyph glyph-name="dotaccent" unicode="&#x2d9;" horiz-adv-x="610" 
d="M258 588v94h93v-94h-93z" />
    <glyph glyph-name="cedilla" unicode="&#xb8;" horiz-adv-x="610" 
d="M215 -200v54c75 6 105 19 105 42c0 25 -27 32 -83 32v96h58v-49c62 -4 99 -27 99 -73c0 -60 -45 -92 -179 -102z" />
    <glyph glyph-name="ogonek" unicode="&#x2db;" horiz-adv-x="610" 
d="M332 -200c-70 0 -111 34 -111 88c0 57 52 98 89 118h70c-43 -34 -78 -71 -78 -107c0 -31 23 -37 53 -37c14 0 27 2 34 4v-56c-14 -5 -32 -10 -57 -10z" />
    <glyph glyph-name="exclamdown" unicode="&#xa1;" horiz-adv-x="300" 
d="M207 734v-115h-114v115h114zM108 516h84l14 -583h-112z" />
    <glyph glyph-name="questiondown" unicode="&#xbf;" horiz-adv-x="542" 
d="M233 498h102v-46c0 -67 -19 -98 -92 -171c-72 -72 -97 -89 -97 -152v-13c0 -51 36 -95 119 -95c65 0 120 28 162 72l60 -69c-52 -55 -122 -91 -220 -91c-139 0 -221 73 -221 182v14c0 98 62 146 124 205c44 42 63 69 63 121v43zM340 706v-115h-114v115h114z" />
    <glyph glyph-name="uni2236" unicode="&#x2236;" horiz-adv-x="910" 
d="M364 549h181l-91 -95zM454 167l91 -94h-181z" />
    <glyph glyph-name="uni222E" unicode="&#x222e;" horiz-adv-x="910" 
d="M430 410c-43 -16 -73 -56 -78 -111c-5 -58 21 -100 66 -113c3 35 5 73 6 114c1 39 3 75 6 110zM566 299c5 56 -24 104 -76 115c-3 -35 -5 -73 -6 -114s-3 -79 -7 -115c49 12 84 55 89 114zM664 649l-47 -21c-11 25 -27 40 -50 40c-29 0 -58 -82 -74 -224
c71 -8 129 -58 122 -145c-7 -84 -71 -134 -141 -144c-9 -73 -23 -133 -43 -181c-21 -51 -53 -86 -93 -86s-71 19 -92 59l44 26c12 -25 28 -41 51 -41c29 0 60 81 74 224c-66 11 -119 60 -112 143c7 80 65 128 130 142c9 74 24 137 44 185c21 51 53 86 93 86
c42 0 73 -21 94 -63z" />
    <glyph glyph-name="summation" unicode="&#x2211;" horiz-adv-x="571" 
d="M70 695h454v-85h-330l201 -278l-204 -273h340v-85h-461v70l213 287l-213 297v67z" />
    <glyph glyph-name="product" unicode="&#x220f;" horiz-adv-x="653" 
d="M629 610h-120v-652h-99v652h-167v-652h-99v652h-120v85h605v-85z" />
    <glyph glyph-name="currency" unicode="&#xa4;" horiz-adv-x="910" 
d="M644 524l111 104l55 -57l-118 -100c30 -42 49 -97 49 -162c0 -70 -22 -127 -56 -170l120 -107l-53 -55l-115 111c-48 -42 -119 -69 -188 -69c-67 0 -135 23 -182 64l-111 -106l-53 55l115 100c-35 45 -61 105 -61 175c0 67 23 123 55 167l-112 97l56 57l105 -100
c48 42 116 68 189 68s145 -28 194 -72zM656 308c0 116 -87 211 -206 211h-1c-117 0 -206 -93 -206 -212c0 -127 99 -212 206 -212c110 0 207 84 207 213z" />
    <glyph glyph-name="uni2109" unicode="&#x2109;" horiz-adv-x="785" 
d="M249 625c0 -51 -40 -93 -98 -93s-98 42 -98 93s40 93 98 93s98 -42 98 -93zM107 624c0 -26 17 -46 44 -46c26 0 43 20 43 46c0 27 -17 47 -43 47c-27 0 -44 -20 -44 -47zM299 695h446v-85h-347v-241h326v-85h-326v-310h-99v721z" />
    <glyph glyph-name="perthousand" unicode="&#x2030;" horiz-adv-x="1267" 
d="M276 -25h-90l431 720h89zM227 706c101 0 163 -64 163 -169v-42c0 -105 -62 -169 -163 -169s-163 64 -163 169v42c0 105 62 169 163 169zM227 394c57 0 85 34 85 103v38c0 68 -28 103 -85 103s-85 -35 -85 -103v-38c0 -69 28 -103 85 -103zM666 346
c101 0 163 -64 163 -169v-42c0 -105 -62 -169 -163 -169s-163 64 -163 169v42c0 105 62 169 163 169zM666 34c57 0 85 34 85 103v38c0 68 -28 103 -85 103s-85 -35 -85 -103v-38c0 -69 28 -103 85 -103zM1040 346c101 0 163 -64 163 -169v-42c0 -105 -62 -169 -163 -169
s-163 64 -163 169v42c0 105 62 169 163 169zM1040 34c57 0 85 34 85 103v38c0 68 -28 103 -85 103s-85 -35 -85 -103v-38c0 -69 28 -103 85 -103z" />
    <glyph glyph-name="uni25C1" unicode="&#x25c1;" horiz-adv-x="910" 
d="M767 694v-786l-624 392zM233 300l485 -303v608z" />
    <glyph glyph-name="uni25C0" unicode="&#x25c0;" horiz-adv-x="910" 
d="M767 694v-786l-624 392z" />
    <glyph glyph-name="uni25B7" unicode="&#x25b7;" horiz-adv-x="910" 
d="M143 694l624 -394l-624 -392v786zM191 -3l485 303l-485 305v-608z" />
    <glyph glyph-name="uni25B6" unicode="&#x25b6;" horiz-adv-x="910" 
d="M143 694l624 -394l-624 -392v786z" />
    <glyph glyph-name="uni2664" unicode="&#x2664;" horiz-adv-x="910" 
d="M785 200c0 -88 -56 -153 -140 -153c-40 0 -73 18 -125 48c3 -51 26 -139 53 -190c6 -13 1 -20 -14 -22c-27 -3 -69 -5 -104 -5c-40 0 -76 2 -104 5c-15 2 -20 9 -14 22c27 56 47 136 52 190c-51 -30 -85 -48 -124 -48c-85 0 -141 65 -141 153c0 118 177 333 331 525
c153 -192 330 -407 330 -525zM724 209c0 96 -158 295 -269 429c-111 -134 -269 -333 -269 -429c0 -46 25 -109 90 -109c56 0 103 59 126 59c25 0 39 -20 36 -52c-3 -41 -11 -88 -29 -145c-3 -11 -3 -17 12 -18c11 -1 19 -2 34 -2c14 0 22 1 34 2c15 1 16 7 13 18
c-18 57 -27 104 -30 145c-2 32 10 52 36 52c23 0 69 -59 125 -59c66 0 91 63 91 109z" />
    <glyph glyph-name="spade" unicode="&#x2660;" horiz-adv-x="910" 
d="M785 200c0 -88 -56 -153 -140 -153c-40 0 -73 18 -125 48c3 -51 26 -139 53 -190c6 -13 1 -20 -14 -22c-27 -3 -69 -5 -104 -5c-40 0 -76 2 -104 5c-15 2 -20 9 -14 22c27 56 47 136 52 190c-51 -30 -85 -48 -124 -48c-85 0 -141 65 -141 153c0 118 177 333 331 525
c153 -192 330 -407 330 -525z" />
    <glyph glyph-name="uni2661" unicode="&#x2661;" horiz-adv-x="910" 
d="M808 479c0 -193 -208 -437 -353 -577c-146 140 -354 384 -354 577c0 113 80 198 179 198c86 0 145 -53 175 -182c29 129 89 182 174 182c99 0 179 -85 179 -198zM744 461c0 92 -37 153 -136 153c-53 0 -89 -68 -104 -119c-7 -26 -27 -54 -49 -54s-40 31 -46 54
c-19 57 -68 119 -107 119c-98 0 -137 -62 -137 -153c0 -149 167 -353 290 -480c122 127 289 331 289 480z" />
    <glyph glyph-name="heart" unicode="&#x2665;" horiz-adv-x="910" 
d="M808 479c0 -193 -208 -437 -353 -577c-146 140 -354 384 -354 577c0 113 80 198 179 198c86 0 145 -53 175 -182c29 129 89 182 174 182c99 0 179 -85 179 -198z" />
    <glyph glyph-name="uni2667" unicode="&#x2667;" horiz-adv-x="910" 
d="M858 210c0 -98 -68 -188 -172 -188c-71 0 -131 49 -162 83c20 -46 40 -131 40 -205c0 -9 -9 -15 -18 -16c-34 -3 -34 -3 -91 -3c-32 0 -58 0 -91 3c-9 1 -18 7 -18 16c0 74 18 159 39 205c-30 -34 -91 -83 -162 -83c-104 0 -171 90 -171 188c0 94 69 181 166 181
c45 0 84 -19 124 -38c11 -5 25 -4 29 3c7 11 -1 23 -8 30c-65 56 -91 96 -91 168c0 100 87 164 183 164s183 -64 183 -164c0 -72 -27 -112 -91 -168c-7 -7 -15 -19 -8 -30c4 -7 18 -8 29 -3c39 19 79 38 123 38c97 0 167 -87 167 -181zM803 214c0 68 -49 130 -124 130
c-65 0 -111 -43 -146 -43c-31 0 -51 21 -51 51c0 58 102 76 102 193c0 79 -58 122 -129 122c-69 0 -129 -43 -129 -122c0 -117 101 -135 101 -193c0 -30 -19 -51 -50 -51c-35 0 -82 43 -147 43c-75 0 -123 -62 -123 -130c0 -73 48 -136 128 -136c96 0 133 90 176 90
c14 0 16 -7 16 -21c0 -52 -30 -111 -30 -206c0 -7 4 -11 13 -12c14 -2 29 -3 45 -3s31 1 45 3c8 1 12 5 12 12c0 95 -29 154 -29 206c0 14 2 21 16 21c40 0 80 -90 175 -90c80 0 129 63 129 136z" />
    <glyph glyph-name="club" unicode="&#x2663;" horiz-adv-x="910" 
d="M858 210c0 -98 -68 -188 -172 -188c-71 0 -131 49 -162 83c20 -46 40 -131 40 -205c0 -9 -9 -15 -18 -16c-34 -3 -34 -3 -91 -3c-32 0 -58 0 -91 3c-9 1 -18 7 -18 16c0 74 18 159 39 205c-30 -34 -91 -83 -162 -83c-104 0 -171 90 -171 188c0 94 69 181 166 181
c45 0 84 -19 124 -38c11 -5 25 -4 29 3c7 11 -1 23 -8 30c-65 56 -91 96 -91 168c0 100 87 164 183 164s183 -64 183 -164c0 -72 -27 -112 -91 -168c-7 -7 -15 -19 -8 -30c4 -7 18 -8 29 -3c39 19 79 38 123 38c97 0 167 -87 167 -181z" />
    <glyph glyph-name="uni25C9" unicode="&#x25c9;" horiz-adv-x="910" 
d="M849 299c0 -218 -176 -394 -394 -394c-215 0 -394 176 -394 394s179 394 394 394c218 0 394 -176 394 -394zM793 299c0 185 -153 338 -338 338c-186 0 -338 -153 -338 -338c0 -186 152 -338 338 -338c185 0 338 152 338 338zM610 299c0 -86 -69 -155 -155 -155
c-84 0 -155 69 -155 155s71 155 155 155c86 0 155 -69 155 -155z" />
    <glyph glyph-name="uni25C8" unicode="&#x25c8;" horiz-adv-x="910" 
d="M455 736l438 -438l-439 -439l-438 438zM454 -83l381 381l-380 379l-381 -380zM455 562l265 -265l-265 -266l-267 266z" />
    <glyph glyph-name="uni25A3" unicode="&#x25a3;" horiz-adv-x="910" 
d="M830 672v-750h-751v750h751zM124 -33h661v660h-661v-660zM682 524v-455h-455v455h455z" />
    <glyph glyph-name="uni25D0" unicode="&#x25d0;" horiz-adv-x="910" 
d="M845 299c0 -216 -174 -390 -390 -390c-213 0 -390 174 -390 390s177 390 390 390c216 0 390 -174 390 -390zM806 299c0 192 -159 351 -351 351v-701c192 0 351 158 351 350z" />
    <glyph glyph-name="uni25D1" unicode="&#x25d1;" horiz-adv-x="910" 
d="M845 299c0 -216 -177 -390 -390 -390c-216 0 -390 174 -390 390s174 390 390 390c213 0 390 -174 390 -390zM455 -51v701c-192 0 -351 -159 -351 -351s159 -350 351 -350z" />
    <glyph glyph-name="shade" unicode="&#x2592;" horiz-adv-x="910" 
d="M827 669v-743h-744v743h744zM116 -41h678v677h-678v-677zM762 581c0 -15 -11 -25 -26 -25c-17 0 -25 8 -25 25c0 15 10 26 25 26s26 -11 26 -26zM668 581c0 -17 -8 -25 -25 -25s-25 8 -25 25c0 15 10 26 25 26s25 -11 25 -26zM762 487c0 -13 -11 -24 -26 -24
s-25 11 -25 24c0 15 10 26 25 26s26 -11 26 -26zM668 487c0 -13 -10 -24 -25 -24s-25 11 -25 24c0 15 10 26 25 26s25 -11 25 -26zM575 581c0 -15 -11 -25 -26 -25s-26 10 -26 25s11 26 26 26s26 -11 26 -26zM762 394c0 -15 -11 -26 -26 -26s-25 11 -25 26s10 26 25 26
s26 -11 26 -26zM575 487c0 -13 -11 -24 -26 -24s-26 11 -26 24c0 15 11 26 26 26s26 -11 26 -26zM668 394c0 -15 -10 -26 -25 -26s-25 11 -25 26s10 26 25 26s25 -11 25 -26zM480 581c0 -17 -8 -25 -25 -25c-13 0 -25 10 -25 25s12 26 25 26c15 0 25 -11 25 -26zM762 300
c0 -13 -11 -25 -26 -25s-25 12 -25 25c0 17 8 25 25 25c15 0 26 -10 26 -25zM480 487c0 -13 -10 -24 -25 -24c-13 0 -25 11 -25 24c0 15 12 26 25 26c15 0 25 -11 25 -26zM575 394c0 -15 -11 -26 -26 -26s-26 11 -26 26s11 26 26 26s26 -11 26 -26zM668 300
c0 -13 -10 -25 -25 -25s-25 12 -25 25c0 17 8 25 25 25s25 -8 25 -25zM387 581c0 -15 -11 -25 -26 -25c-17 0 -25 8 -25 25c0 15 10 26 25 26s26 -11 26 -26zM762 206c0 -15 -11 -26 -26 -26s-25 11 -25 26s10 26 25 26s26 -11 26 -26zM387 487c0 -13 -11 -24 -26 -24
s-25 11 -25 24c0 15 10 26 25 26s26 -11 26 -26zM480 394c0 -15 -10 -26 -25 -26c-13 0 -25 11 -25 26s12 26 25 26c15 0 25 -11 25 -26zM575 300c0 -13 -11 -25 -26 -25s-26 12 -26 25c0 15 11 25 26 25s26 -10 26 -25zM668 206c0 -15 -10 -26 -25 -26s-25 11 -25 26
s10 26 25 26s25 -11 25 -26zM293 581c0 -15 -12 -25 -25 -25c-15 0 -26 10 -26 25s11 26 26 26c13 0 25 -11 25 -26zM762 113c0 -15 -11 -26 -26 -26s-25 11 -25 26c0 13 10 24 25 24s26 -11 26 -24zM199 581c0 -17 -8 -25 -24 -25c-15 0 -26 10 -26 25s11 26 26 26
s24 -11 24 -26zM293 487c0 -13 -12 -24 -25 -24c-15 0 -26 11 -26 24c0 15 11 26 26 26c13 0 25 -11 25 -26zM387 394c0 -15 -11 -26 -26 -26s-25 11 -25 26s10 26 25 26s26 -11 26 -26zM480 300c0 -13 -10 -25 -25 -25c-13 0 -25 12 -25 25c0 15 12 25 25 25
c17 0 25 -8 25 -25zM575 206c0 -15 -11 -26 -26 -26s-26 11 -26 26s11 26 26 26s26 -11 26 -26zM668 113c0 -15 -10 -26 -25 -26s-25 11 -25 26c0 13 10 24 25 24s25 -11 25 -24zM762 19c0 -15 -11 -26 -26 -26s-25 11 -25 26c0 17 8 25 25 25c15 0 26 -10 26 -25zM199 487
c0 -13 -9 -24 -24 -24s-26 11 -26 24c0 15 11 26 26 26s24 -11 24 -26zM668 19c0 -15 -10 -26 -25 -26s-25 11 -25 26c0 17 8 25 25 25s25 -8 25 -25zM293 394c0 -15 -12 -26 -25 -26c-15 0 -26 11 -26 26s11 26 26 26c13 0 25 -11 25 -26zM387 300c0 -13 -11 -25 -26 -25
s-25 12 -25 25c0 17 8 25 25 25c15 0 26 -10 26 -25zM480 206c0 -15 -10 -26 -25 -26c-13 0 -25 11 -25 26s12 26 25 26c15 0 25 -11 25 -26zM575 113c0 -15 -11 -26 -26 -26s-26 11 -26 26c0 13 11 24 26 24s26 -11 26 -24zM199 394c0 -15 -9 -26 -24 -26s-26 11 -26 26
s11 26 26 26s24 -11 24 -26zM575 19c0 -15 -11 -26 -26 -26s-26 11 -26 26s11 25 26 25s26 -10 26 -25zM293 300c0 -13 -12 -25 -25 -25c-15 0 -26 12 -26 25c0 15 11 25 26 25c13 0 25 -10 25 -25zM387 206c0 -15 -11 -26 -26 -26s-25 11 -25 26s10 26 25 26s26 -11 26 -26
zM480 113c0 -15 -10 -26 -25 -26c-13 0 -25 11 -25 26c0 13 12 24 25 24c15 0 25 -11 25 -24zM199 300c0 -13 -9 -25 -24 -25s-26 12 -26 25c0 15 11 25 26 25c16 0 24 -8 24 -25zM480 19c0 -15 -10 -26 -25 -26c-13 0 -25 11 -25 26s12 25 25 25c17 0 25 -8 25 -25z
M293 206c0 -15 -12 -26 -25 -26c-15 0 -26 11 -26 26s11 26 26 26c13 0 25 -11 25 -26zM387 113c0 -15 -11 -26 -26 -26s-25 11 -25 26c0 13 10 24 25 24s26 -11 26 -24zM199 206c0 -15 -9 -26 -24 -26s-26 11 -26 26s11 26 26 26s24 -11 24 -26zM387 19
c0 -15 -11 -26 -26 -26s-25 11 -25 26c0 17 8 25 25 25c15 0 26 -10 26 -25zM293 113c0 -15 -12 -26 -25 -26c-15 0 -26 11 -26 26c0 13 11 24 26 24c13 0 25 -11 25 -24zM199 113c0 -15 -9 -26 -24 -26s-26 11 -26 26c0 13 11 24 26 24s24 -11 24 -24zM293 19
c0 -15 -12 -26 -25 -26c-15 0 -26 11 -26 26s11 25 26 25c13 0 25 -10 25 -25zM199 19c0 -15 -9 -26 -24 -26s-26 11 -26 26s11 25 26 25c16 0 24 -8 24 -25z" />
    <glyph glyph-name="uni25A4" unicode="&#x25a4;" horiz-adv-x="910" 
d="M827 669v-743h-744v743h744zM116 568h678v68h-678v-68zM116 463h678v73h-678v-73zM116 365h678v66h-678v-66zM116 262h678v71h-678v-71zM116 158h678v72h-678v-72zM116 58h678v68h-678v-68zM116 -41h678v67h-678v-67z" />
    <glyph glyph-name="uni25A5" unicode="&#x25a5;" horiz-adv-x="910" 
d="M827 669v-743h-744v743h744zM726 -41h68v677h-68v-677zM626 -41h68v677h-68v-677zM522 -41h72v677h-72v-677zM419 -41h71v677h-71v-677zM321 -41h66v677h-66v-677zM216 -41h73v677h-73v-677zM116 -41h68v677h-68v-677z" />
    <glyph glyph-name="uni25A8" unicode="&#x25a8;" horiz-adv-x="910" 
d="M827 669v-743h-744v743h744zM258 -41l536 536v118l-654 -654h118zM424 -41l370 370v118l-488 -488h118zM590 -41l204 204v118l-322 -322h118zM638 -41h156v156zM116 482l155 154h-155v-154zM116 315l322 321h-119l-203 -202v-119zM116 149l488 487h-118l-370 -369v-118z
M116 -17l653 653h-117l-536 -535v-118z" />
    <glyph glyph-name="uni25A7" unicode="&#x25a7;" horiz-adv-x="910" 
d="M827 669v-743h-744v743h744zM639 636l155 -154v154h-155zM472 636l322 -321v119l-203 202h-119zM306 636l488 -487v118l-370 369h-118zM141 636l653 -653v118l-536 535h-117zM652 -41h118l-654 654v-118zM486 -41h118l-488 488v-118zM320 -41h118l-322 322v-118zM116 -41
h156l-156 156v-156z" />
    <glyph glyph-name="uni25A6" unicode="&#x25a6;" horiz-adv-x="910" 
d="M827 669v-743h-744v743h744zM723 565h71v71h-71v-71zM723 464h71v71h-71v-71zM621 565h71v71h-71v-71zM723 363h71v71h-71v-71zM520 565h71v71h-71v-71zM621 464h71v71h-71v-71zM723 262h71v71h-71v-71zM419 565h71v71h-71v-71zM520 464h71v71h-71v-71zM621 363h71v71
h-71v-71zM723 161h71v71h-71v-71zM318 565h71v71h-71v-71zM419 464h71v71h-71v-71zM520 363h71v71h-71v-71zM621 262h71v71h-71v-71zM723 60h71v71h-71v-71zM217 565h71v71h-71v-71zM318 464h71v71h-71v-71zM419 363h71v71h-71v-71zM520 262h71v71h-71v-71zM621 161h71v71
h-71v-71zM723 -41h71v71h-71v-71zM116 565h71v71h-71v-71zM217 464h71v71h-71v-71zM318 363h71v71h-71v-71zM419 262h71v71h-71v-71zM520 161h71v71h-71v-71zM621 60h71v71h-71v-71zM621 -41h71v71h-71v-71zM116 464h71v71h-71v-71zM217 363h71v71h-71v-71zM318 262h71v71
h-71v-71zM419 161h71v71h-71v-71zM520 60h71v71h-71v-71zM520 -41h71v71h-71v-71zM116 363h71v71h-71v-71zM217 262h71v71h-71v-71zM318 161h71v71h-71v-71zM419 60h71v71h-71v-71zM419 -41h71v71h-71v-71zM116 262h71v71h-71v-71zM217 161h71v71h-71v-71zM318 60h71v71h-71
v-71zM318 -41h71v71h-71v-71zM116 161h71v71h-71v-71zM217 60h71v71h-71v-71zM217 -41h71v71h-71v-71zM116 60h71v71h-71v-71zM116 -41h71v71h-71v-71z" />
    <glyph glyph-name="uni25A9" unicode="&#x25a9;" horiz-adv-x="910" 
d="M827 669v-743h-744v743h744zM727 548l67 -66v133zM703 572l65 64h-129zM710 398l60 60l-66 67l-61 -60zM620 488l59 60l-64 64l-60 -59zM532 576l60 60h-120zM734 374l60 -60v120zM448 494l60 59l-60 59l-59 -59zM537 406l59 59l-65 63l-59 -58zM627 315l59 60l-66 66
l-59 -59zM711 232l59 59l-60 59l-59 -59zM365 577l59 59h-118zM735 208l59 -59v118zM544 233l60 58l-68 67l-58 -59zM282 495l59 58l-60 60l-58 -59zM454 323l58 59l-64 64l-58 -59zM628 149l59 59l-60 59l-58 -58zM711 66l59 59l-59 59l-59 -59zM366 411l58 59l-60 59
l-58 -58zM199 578l59 58h-117zM735 42l59 -59v118zM652 -41h118l-59 59zM116 495l59 59l-59 59v-118zM461 150l60 58l-67 68l-59 -60zM199 412l59 59l-59 59l-59 -59zM282 329l59 59l-59 59l-59 -59zM371 241l58 58l-64 65l-59 -59zM545 66l59 59l-59 59l-59 -59zM628 -17
l59 59l-59 59l-59 -59zM486 -41h118l-59 59zM116 329l59 59l-59 59v-118zM199 246l59 59l-59 59l-59 -59zM287 158l59 59l-64 64l-59 -59zM378 66l60 59l-67 68l-60 -59zM462 -17l59 59l-59 59l-59 -59zM116 164l59 58l-59 59v-117zM319 -41h119l-59 59zM204 75l59 59
l-64 64l-59 -59zM296 -17l58 60l-67 67l-59 -59zM116 -13l64 64l-64 64v-128zM137 -41h135l-68 68z" />
    <glyph glyph-name="uni2668" unicode="&#x2668;" horiz-adv-x="910" 
d="M657 298c8 -100 -50 -154 -72 -197c-17 -33 -25 -61 -28 -73c-3 -7 -10 -12 -14 0c-8 19 -9 68 4 99c24 60 55 152 26 221c-45 101 -29 164 0 233c9 23 13 52 13 69c0 12 7 17 14 2c11 -21 23 -67 12 -143c-13 -92 34 -111 45 -211zM525 286c11 -59 -43 -151 -62 -189
c-20 -37 -29 -60 -30 -73c-1 -12 -13 -10 -17 -1c-9 21 -15 67 8 123c40 93 9 195 -1 217c-53 123 -6 188 21 244c19 39 23 72 23 93c0 15 10 13 15 2c13 -29 27 -98 3 -164c-34 -97 19 -148 40 -252zM853 101c0 -123 -183 -209 -393 -209c-211 0 -404 75 -404 182
s153 160 208 176c15 5 19 -12 2 -18c-11 -5 -137 -58 -137 -138c0 -68 172 -102 332 -102c159 0 331 47 331 123c0 55 -79 99 -115 110c-16 5 -9 19 4 16c39 -5 172 -51 172 -140zM383 261c4 -40 -22 -101 -55 -165c-17 -32 -23 -50 -24 -62c-1 -11 -10 -12 -17 0
c-8 17 -16 54 -1 97c14 38 37 141 7 214c-38 91 -18 176 22 250c11 19 19 41 23 60c3 11 11 9 14 1c7 -20 13 -70 -10 -150c-16 -58 30 -145 41 -245z" />
    <glyph glyph-name="uni260F" unicode="&#x260f;" horiz-adv-x="910" 
d="M878 328c-16 -27 -80 -10 -131 3c-41 12 -80 30 -85 54c-6 20 17 60 14 79c-5 27 -28 29 -53 32c-4 -31 -8 -59 11 -122c19 -69 50 -96 92 -130c67 -56 70 -130 70 -169c21 -8 24 -53 21 -80c-1 -12 -14 -16 -34 -16h-656c-20 0 -33 4 -34 16c-3 27 0 72 21 80
c0 39 3 113 70 169c42 34 73 61 92 130c17 63 15 91 11 122c-25 -3 -48 -5 -53 -32c-5 -19 20 -59 14 -79c-5 -24 -44 -42 -85 -54c-51 -13 -115 -30 -131 -3s-9 108 28 155c65 84 235 122 395 122s330 -38 395 -122c37 -47 44 -128 28 -155zM385 436h140v59
c-17 -5 -44 -10 -70 -10s-53 5 -70 10v-59zM845 346c17 2 21 95 -53 155c-58 46 -233 78 -337 78c-137 0 -280 -32 -338 -78c-76 -59 -68 -153 -53 -155c52 -5 117 17 148 39c16 12 -20 61 -3 98c11 26 50 43 138 43c14 0 29 -3 46 -6c22 -5 39 -8 62 -8c22 0 39 3 62 8
c17 3 31 6 45 6c88 0 125 -16 139 -43c17 -37 -19 -86 -4 -98c30 -22 98 -44 148 -39zM134 9h642c7 0 11 50 -11 63c0 31 -10 101 -45 134c-59 56 -83 77 -101 123c-24 66 -29 125 -25 167h-41v-86h-196v86h-42c4 -42 0 -101 -24 -167c-18 -46 -43 -67 -102 -123
c-35 -33 -45 -103 -45 -134c-22 -13 -18 -63 -10 -63zM617 206c0 -89 -74 -162 -162 -162c-89 0 -162 73 -162 162c0 88 73 162 162 162c88 0 162 -74 162 -162zM585 206c0 72 -58 130 -130 130s-130 -58 -130 -130s58 -129 130 -129s130 57 130 129z" />
    <glyph glyph-name="uni260E" unicode="&#x260e;" horiz-adv-x="910" 
d="M878 328c-16 -27 -80 -10 -131 3c-41 12 -80 30 -85 54c-6 20 19 60 16 79c-5 27 -30 33 -55 37c-4 -31 -8 -64 11 -127c19 -69 50 -96 92 -130c67 -56 70 -130 70 -169c21 -8 24 -53 21 -80c-1 -12 -14 -16 -34 -16h-656c-20 0 -33 4 -34 16c-3 27 0 72 21 80
c0 39 3 113 70 169c42 34 73 61 92 130c17 63 15 96 11 127c-25 -4 -50 -10 -55 -37c-5 -19 22 -59 16 -79c-5 -24 -44 -42 -85 -54c-51 -13 -115 -30 -131 -3s-9 109 28 156c65 84 235 121 395 121s330 -37 395 -121c37 -47 44 -129 28 -156zM377 439h156v65
c-19 -5 -49 -10 -78 -10s-59 5 -78 10v-65zM602 208c0 81 -66 147 -147 147s-147 -66 -147 -147s66 -146 147 -146s147 65 147 146z" />
    <glyph glyph-name="uni261C" unicode="&#x261c;" horiz-adv-x="910" 
d="M847 420v-236h-76v21h-29c-35 -21 -82 -41 -168 -55c-49 -7 -150 -6 -193 0c-24 4 -50 11 -55 33c-3 16 4 25 15 32c-18 0 -37 13 -38 33c-1 15 4 23 11 30c-18 2 -36 10 -36 33c0 29 24 40 82 40l-3 8c-63 2 -97 3 -171 7c-57 3 -124 2 -124 43c0 34 52 35 118 39
c37 3 176 5 287 5c85 0 176 4 245 -59c21 -5 44 -7 60 -6v32h75zM752 217h20v154c-10 -1 -32 0 -44 3l2 -8c2 -13 0 -13 -7 -5c-11 13 -30 30 -58 49c-41 27 -149 32 -185 27c-19 -2 -47 -12 -66 -24c-10 -6 -16 -16 -22 -27c-5 -11 -11 -19 -19 -24c-5 -7 3 -16 31 -5
c27 10 42 39 48 32c4 -4 1 -10 -4 -15c10 -4 31 -6 41 -4c27 7 40 21 42 16c2 -6 -4 -16 -14 -23c8 -12 37 -38 79 -52c53 -18 92 -10 92 -22c0 -9 -55 -4 -87 5c-55 18 -89 52 -100 67c-6 -4 -16 -4 -23 -4c-19 1 -35 5 -42 7l-15 -13c35 0 61 -9 65 -25
c5 -18 -1 -33 -11 -41c19 -5 29 -14 31 -28c2 -18 -5 -25 -15 -32c18 -4 30 -13 32 -28c4 -21 -12 -33 -13 -33c9 -2 22 -2 35 0c104 9 160 35 202 62c4 4 8 4 7 -1zM429 437c-65 0 -158 -2 -248 -4c-64 -2 -102 -4 -102 -24c0 -21 28 -22 102 -27c83 -4 132 -7 187 -8
l21 32c10 14 22 25 40 31zM787 200h44v203h-44v-203zM490 247c1 20 -8 25 -28 28c-18 2 -95 1 -119 0c-13 -1 -23 -12 -23 -25c0 -9 7 -17 25 -20c14 -3 112 -4 114 -3c13 0 30 6 31 20zM507 194c-1 14 -19 18 -31 18c-36 1 -84 1 -113 -1c-14 -1 -20 -13 -18 -24
c1 -8 7 -16 18 -18c35 -7 81 -7 114 -4c22 1 32 11 30 29zM467 316c0 8 -5 16 -20 17c-49 3 -92 5 -134 0c-13 -2 -20 -12 -19 -22c0 -9 7 -19 20 -19c41 -2 104 -1 134 2c11 2 19 7 19 22z" />
    <glyph glyph-name="uni261E" unicode="&#x261e;" horiz-adv-x="910" 
d="M847 409c0 -41 -67 -40 -124 -43c-74 -4 -108 -5 -171 -7l-3 -8c58 0 82 -11 82 -40c0 -23 -18 -31 -36 -33c7 -7 12 -15 11 -30c-1 -20 -20 -33 -38 -33c11 -7 18 -16 15 -32c-5 -22 -31 -29 -55 -33c-43 -6 -144 -7 -193 0c-86 14 -133 34 -168 55h-29v-21h-76v236h75
v-32c16 -1 39 1 60 6c69 63 160 59 245 59c111 0 250 -2 287 -5c66 -4 118 -5 118 -39zM536 362c-8 5 -14 13 -19 24c-6 11 -12 21 -22 27c-19 12 -47 22 -66 24c-36 5 -144 0 -185 -27c-28 -19 -47 -36 -58 -49c-7 -8 -9 -8 -7 5l2 8c-12 -3 -34 -4 -44 -3v-154h20l-2 8
c-2 5 3 4 7 1c42 -27 98 -53 202 -62c13 -2 25 -2 34 0c-2 1 -16 13 -12 33c2 15 14 24 32 28c-10 7 -17 14 -15 32c3 14 12 23 31 28c-10 8 -16 23 -11 41c5 16 30 25 65 25l-15 13c-7 -2 -23 -6 -42 -7c-7 0 -17 0 -23 4c-11 -15 -45 -49 -100 -67c-32 -9 -87 -14 -87 -5
c0 12 39 4 92 22c42 14 71 40 79 52c-10 7 -16 17 -14 23c2 5 15 -9 42 -16c10 -2 31 0 41 4c-5 5 -8 11 -4 15c6 7 21 -22 48 -32c28 -11 36 -2 31 5zM830 409c0 20 -38 22 -102 24c-90 2 -183 4 -248 4c18 -6 30 -17 40 -31l21 -32c55 1 104 4 187 8c74 5 102 6 102 27z
M78 200h44v203h-44v-203zM589 250c0 13 -10 24 -23 25c-24 1 -101 2 -119 0c-19 -3 -29 -8 -28 -28c1 -14 18 -20 31 -20c2 -1 100 0 114 3c18 3 25 11 25 20zM564 187c2 11 -4 23 -18 24c-29 2 -77 2 -113 1c-12 0 -30 -4 -31 -18c-2 -18 8 -28 30 -29c33 -3 79 -3 114 4
c11 2 17 10 18 18zM615 311c1 10 -6 20 -19 22c-42 5 -85 3 -134 0c-15 -1 -20 -9 -20 -17c0 -15 8 -20 19 -22c30 -3 93 -4 134 -2c13 0 20 10 20 19z" />
    <glyph glyph-name="paragraph" unicode="&#xb6;" horiz-adv-x="584" 
d="M284 -122v471h-50c-106 0 -202 63 -202 182c0 99 61 185 236 185h236v-838h-67v779h-86v-779h-67z" />
    <glyph glyph-name="dagger" unicode="&#x2020;" horiz-adv-x="493" 
d="M205 -91v504h-165v79h165v202h83v-202h165v-79h-165v-504h-83z" />
    <glyph glyph-name="daggerdbl" unicode="&#x2021;" horiz-adv-x="493" 
d="M40 111v79h165v223h-165v79h165v202h83v-202h165v-79h-165v-223h165v-79h-165v-202h-83v202h-165z" />
    <glyph glyph-name="arrowupdn" unicode="&#x2195;" horiz-adv-x="910" 
d="M611 478l-127 75v-418l127 74l17 -15l-173 -208l-173 208l17 15l127 -74v418l-127 -75l-17 15l173 208l173 -208z" />
    <glyph glyph-name="uni2197" unicode="&#x2197;" horiz-adv-x="910" 
d="M142 -11l-41 42l581 581l-142 36l-1 23l269 25l-25 -269l-23 1l-36 142z" />
    <glyph glyph-name="uni2199" unicode="&#x2199;" horiz-adv-x="910" 
d="M768 698l41 -41l-582 -581l142 -37l2 -23l-270 -25l25 270l23 -2l37 -142z" />
    <glyph glyph-name="uni2196" unicode="&#x2196;" horiz-adv-x="910" 
d="M808 31l-41 -42l-582 581l-36 -142l-23 -1l-25 269l269 -25l-1 -23l-142 -36z" />
    <glyph glyph-name="uni2198" unicode="&#x2198;" horiz-adv-x="910" 
d="M101 657l41 41l582 -581l37 142l23 2l25 -270l-270 25l2 23l142 37z" />
    <glyph glyph-name="uni266D" unicode="&#x266d;" horiz-adv-x="517" 
d="M342 229c0 71 -27 127 -71 127c-75 0 -109 -71 -109 -118v-214c78 6 180 59 180 205zM418 266c0 -226 -185 -284 -319 -291v665h63v-328c15 42 50 95 140 95c64 0 116 -55 116 -141z" />
    <glyph glyph-name="uni2669" unicode="&#x2669;" horiz-adv-x="388" 
d="M288 662v-547c0 -57 -6 -91 -35 -125c-36 -43 -103 -78 -139 -37s2 106 51 135c26 15 53 24 85 29v545h38z" />
    <glyph glyph-name="musicalnote" unicode="&#x266a;" horiz-adv-x="539" 
d="M479 339c0 -40 -11 -82 -39 -125c-26 -40 -71 -82 -107 -103c-15 -9 -20 2 -10 12c35 34 99 102 99 193c0 87 -115 121 -174 139v-340c0 -57 -6 -91 -35 -125c-36 -43 -103 -78 -139 -37s2 106 51 135c26 15 53 24 85 29v500c0 17 0 40 9 40s15 -6 31 -24
c17 -20 34 -40 70 -71c115 -99 159 -162 159 -223z" />
    <glyph glyph-name="uni266C" unicode="&#x266c;" horiz-adv-x="693" 
d="M251 412l347 74v58l-347 -74v-58zM638 645v-454c0 -46 -29 -87 -67 -119c-35 -29 -91 -52 -121 -13c-23 30 8 87 43 113c38 28 69 33 105 38v182l-347 -75v-223c0 -46 -29 -87 -67 -119c-35 -29 -91 -52 -121 -13c-23 30 8 87 43 113c38 28 69 33 105 38v446z" />
    <glyph glyph-name="uni327F" unicode="&#x327f;" horiz-adv-x="900" 
d="M880 301c0 -232 -171 -425 -426 -425c-215 0 -370 140 -414 331l78 1c40 -153 157 -261 336 -261c206 0 343 147 353 333h-175v72h245c2 -17 3 -34 3 -51zM853 442h-79c-54 126 -160 213 -320 213c-193 0 -321 -130 -349 -303h122v-72h-197v21c0 231 172 424 424 424
c199 0 336 -114 399 -283zM670 532l-178 -182l186 -267h-100l-141 210l-64 -65v-145h-80v449h80v-207l194 207h103z" />
    <glyph glyph-name="uni321C" unicode="&#x321c;" horiz-adv-x="910" 
d="M114 324v-50c0 -152 34 -303 137 -444h-81c-99 118 -147 271 -147 449v40c0 178 48 329 147 447h81c-98 -132 -137 -282 -137 -442zM796 274v50c0 160 -39 310 -137 442h81c99 -118 147 -269 147 -447v-40c0 -178 -48 -331 -147 -449h-81c103 141 137 292 137 444z
M234 602h441v-66h-183v-17c0 -22 -5 -46 210 -137l-33 -64c-177 74 -204 101 -215 114c-14 -14 -36 -39 -215 -114c-12 21 -22 43 -33 64c216 91 210 114 210 137v17h-182v66zM157 271h595v-66h-259v-214h-77v214h-259v66z" />
    <glyph glyph-name="afii61352" unicode="&#x2116;" horiz-adv-x="900" 
d="M66 695h114l170 -463c9 -26 23 -60 34 -128v591h88v-721h-114l-172 463c-11 29 -26 72 -32 128v-591h-88v721zM682 512c105 0 171 -66 171 -185v-44c0 -119 -66 -186 -171 -186c-104 0 -170 67 -170 186v44c0 119 66 185 170 185zM682 172c56 0 87 37 87 118v29
c0 81 -31 118 -87 118c-55 0 -86 -37 -86 -118v-29c0 -81 31 -118 86 -118zM540 -26v77h285v-77h-285z" />
    <glyph glyph-name="uni33C7" unicode="&#x33c7;" horiz-adv-x="900" 
d="M828 -26v78h69v-78h-69zM645 -37c-143 0 -207 102 -207 314v115c0 210 65 314 207 314s207 -104 207 -314v-115c0 -212 -64 -314 -207 -314zM645 621c-82 0 -112 -71 -112 -240v-93c0 -169 30 -240 112 -240c83 0 112 71 112 240v93c0 169 -29 240 -112 240zM393 110
l57 -67c-57 -62 -120 -80 -189 -80c-156 0 -229 101 -229 317v109c0 219 88 317 226 317c69 0 127 -19 179 -68l-55 -67c-48 44 -85 48 -124 48c-80 0 -131 -62 -131 -240v-89c0 -170 50 -240 134 -240c50 0 95 15 132 60z" />
    <glyph glyph-name="trademark" unicode="&#x2122;" horiz-adv-x="725" 
d="M116 369v267h-96v59h268v-59h-96v-267h-76zM322 369v326h92l84 -188h3l87 188h90v-326h-71v230h-1l-78 -166h-59l-80 172h-2v-236h-65z" />
    <glyph glyph-name="uni33C2" unicode="&#x33c2;" horiz-adv-x="910" 
d="M264 374v-400h-70v50c-11 -35 -34 -57 -76 -57c-53 0 -99 44 -99 144v29c0 100 46 161 139 161h24v68c0 47 -10 77 -47 77c-22 0 -42 -9 -66 -35l-47 58c27 26 64 54 117 54c75 0 125 -33 125 -149zM183 124v104h-24c-39 0 -56 -32 -56 -92v-18c0 -43 5 -78 36 -78
s44 43 44 84zM366 -26v539h73v-56c9 32 37 66 82 66c35 0 69 -15 83 -70c15 39 44 70 94 70c62 0 110 -39 110 -135v-414h-84v378c0 59 -6 91 -46 91c-34 0 -49 -39 -49 -93v-376h-84v387c0 62 -14 82 -45 82c-34 0 -50 -35 -50 -99v-370h-84zM826 -26v78h69v-78h-69z
M280 -26v78h69v-78h-69z" />
    <glyph glyph-name="uni33D8" unicode="&#x33d8;" horiz-adv-x="910" 
d="M111 11v-251h-84v753h78v-56c11 40 35 66 74 66c79 0 108 -70 108 -221v-115c0 -167 -33 -221 -107 -221c-34 0 -59 20 -69 45zM376 -26v539h73v-56c9 32 36 66 81 66c35 0 73 -19 82 -70c11 39 45 70 88 70c62 0 110 -39 110 -135v-414h-84v379c0 59 -10 90 -43 90
c-32 0 -46 -32 -46 -90v-379h-90v388c0 62 -14 81 -42 81s-45 -28 -45 -96v-373h-84zM203 189v103c0 115 -10 151 -44 151c-40 0 -48 -54 -48 -119v-171c0 -63 10 -109 50 -109c27 0 42 21 42 145zM289 -26v78h69v-78h-69zM828 -26v78h69v-78h-69z" />
    <glyph glyph-name="uni2121" unicode="&#x2121;" horiz-adv-x="1060" 
d="M399 513h303v-83h-206v-134h185v-83h-185v-156h213v-83h-310v539zM289 -26h-97v638h-184v83h465v-83h-184v-638zM761 513h97v-456h194v-83h-291v539z" />
    <glyph glyph-name="uniFF01" unicode="&#xff01;" horiz-adv-x="910" 
d="M398 -67v115h114v-115h-114zM497 151h-84l-14 583h112z" />
    <glyph glyph-name="uniFF02" unicode="&#xff02;" horiz-adv-x="910" 
d="M415 488h-84l-10 246h104zM578 488h-84l-10 246h104z" />
    <glyph glyph-name="uniFF03" unicode="&#xff03;" horiz-adv-x="910" 
d="M590 262h101v-87h-113l-28 -201h-80l28 201h-131l-27 -201h-81l28 201h-99v87h111l21 150h-101v87h114l27 196h80l-27 -196h130l27 196h81l-28 -196h99v-87h-111zM510 262l21 150h-131l-21 -150h131z" />
    <glyph glyph-name="uniFF04" unicode="&#xff04;" horiz-adv-x="910" 
d="M427 -93v72c-85 5 -172 36 -226 80l50 75c47 -36 113 -64 176 -71v240c-125 29 -212 73 -212 192v18c0 90 69 166 212 177v61h61v-60c78 -4 147 -28 193 -64l-48 -70c-45 30 -92 47 -145 51v-231c169 -44 221 -98 221 -194v-15c0 -121 -92 -179 -221 -188v-73h-61z
M612 176c0 50 -23 85 -124 112v-225c82 9 124 49 124 98v15zM311 497c0 -57 42 -82 116 -104v214c-81 -8 -116 -50 -116 -93v-17z" />
    <glyph glyph-name="uniFF05" unicode="&#xff05;" horiz-adv-x="910" 
d="M284 -25h-90l431 720h89zM235 706c101 0 163 -64 163 -169v-42c0 -105 -62 -169 -163 -169s-163 64 -163 169v42c0 105 62 169 163 169zM235 394c57 0 85 34 85 103v38c0 68 -28 103 -85 103s-85 -35 -85 -103v-38c0 -69 28 -103 85 -103zM674 346
c101 0 163 -64 163 -169v-42c0 -105 -62 -169 -163 -169s-163 64 -163 169v42c0 105 62 169 163 169zM674 34c57 0 85 34 85 103v38c0 68 -28 103 -85 103s-85 -35 -85 -103v-38c0 -69 28 -103 85 -103z" />
    <glyph glyph-name="uniFF06" unicode="&#xff06;" horiz-adv-x="910" 
d="M381 49c63 0 118 23 158 62l-169 202c-94 -50 -136 -86 -136 -145v-16c0 -56 63 -103 147 -103zM317 555v-11c0 -36 40 -83 75 -124c87 50 103 89 103 124v11c0 37 -40 67 -89 67c-55 0 -89 -33 -89 -67zM625 361h91c0 -101 -21 -184 -63 -249l116 -137h-114l-59 70
c-59 -56 -139 -82 -213 -82h-6c-121 0 -236 59 -236 186v23c0 92 56 150 172 208c-40 47 -86 98 -86 161v18c0 78 62 147 179 147c111 0 180 -76 180 -147v-19c0 -64 -31 -120 -140 -185l146 -171c22 42 33 93 33 177z" />
    <glyph glyph-name="uniFF07" unicode="&#xff07;" horiz-adv-x="910" 
d="M499 488h-88l-10 246h108z" />
    <glyph glyph-name="uniFF08" unicode="&#xff08;" horiz-adv-x="910" 
d="M750 324v-50c0 -152 34 -303 137 -444h-92c-99 118 -147 271 -147 449v40c0 178 48 329 147 447h92c-98 -132 -137 -282 -137 -442z" />
    <glyph glyph-name="uniFF09" unicode="&#xff09;" horiz-adv-x="910" 
d="M160 274v50c0 160 -39 310 -137 442h92c99 -118 147 -269 147 -447v-40c0 -178 -48 -331 -147 -449h-92c103 141 137 292 137 444z" />
    <glyph glyph-name="uniFF0A" unicode="&#xff0a;" horiz-adv-x="910" 
d="M424 483l-120 -83l-41 77l139 59l-139 58l41 77l119 -83l-11 143h86l-12 -143l120 83l40 -77l-139 -58l139 -59l-40 -77l-120 83l12 -142h-86z" />
    <glyph glyph-name="uniFF0B" unicode="&#xff0b;" horiz-adv-x="910" 
d="M410 571h90v-211h207v-84h-207v-225h-90v225h-207v84h207v211z" />
    <glyph glyph-name="uniFF0C" unicode="&#xff0c;" horiz-adv-x="910" 
d="M376 -175l42 228h115l-77 -228h-80z" />
    <glyph glyph-name="uniFF0D" unicode="&#xff0d;" horiz-adv-x="910" 
d="M343 292v84h326v-84h-326z" />
    <glyph glyph-name="uniFF0E" unicode="&#xff0e;" horiz-adv-x="910" 
d="M398 -67v115h114v-115h-114z" />
    <glyph glyph-name="uniFF0F" unicode="&#xff0f;" horiz-adv-x="910" 
d="M559 768h96l-306 -896h-95z" />
    <glyph glyph-name="uniFF10" unicode="&#xff10;" horiz-adv-x="910" 
d="M710 391v-112c0 -204 -82 -316 -255 -316c-171 0 -255 114 -255 316v112c0 202 87 315 255 315c170 0 255 -113 255 -315zM609 278v114c0 176 -66 222 -154 222c-84 0 -154 -47 -154 -222v-114c0 -177 70 -223 154 -223c88 0 154 45 154 223z" />
    <glyph glyph-name="uniFF11" unicode="&#xff11;" horiz-adv-x="910" 
d="M612 -26h-99v605l-169 -100l-47 80l232 136h83v-721z" />
    <glyph glyph-name="uniFF12" unicode="&#xff12;" horiz-adv-x="910" 
d="M213 57l269 292c82 90 90 130 90 168v8c0 57 -49 92 -124 92c-53 0 -110 -21 -157 -105l-76 49c34 62 98 145 231 145c146 0 225 -76 225 -181v-10c0 -78 -46 -146 -111 -215l-225 -240h362v-86h-484v83z" />
    <glyph glyph-name="uniFF13" unicode="&#xff13;" horiz-adv-x="910" 
d="M306 546l-71 52c42 60 102 108 210 108c133 0 218 -72 218 -180v-10c0 -57 -24 -131 -113 -163c97 -17 146 -83 146 -166v-15c0 -106 -75 -209 -252 -209c-84 0 -163 26 -231 80l49 79c70 -51 120 -69 182 -69c105 0 153 53 153 118v13c0 95 -65 123 -149 123h-89v86h85
c90 0 121 60 121 122v8c0 63 -54 95 -119 95c-59 0 -101 -21 -140 -72z" />
    <glyph glyph-name="uniFF14" unicode="&#xff14;" horiz-adv-x="910" 
d="M535 434h98v-221h102v-84h-102v-155h-98v155h-360v74l339 492h109l-332 -482h244v221z" />
    <glyph glyph-name="uniFF15" unicode="&#xff15;" horiz-adv-x="910" 
d="M703 206v-15c0 -106 -71 -228 -251 -228c-98 0 -177 26 -245 80l49 79c69 -54 131 -69 198 -69c105 0 150 71 150 138v12c0 96 -53 143 -145 143c-61 0 -109 -26 -141 -57h-76l23 406h391v-85h-301l-11 -225c32 24 84 44 144 44c137 0 215 -101 215 -223z" />
    <glyph glyph-name="uniFF16" unicode="&#xff16;" horiz-adv-x="910" 
d="M670 657l-38 -84c-45 26 -98 42 -155 42c-98 0 -166 -60 -173 -250c24 42 92 82 172 82c128 0 227 -89 227 -230v-22c0 -138 -99 -232 -246 -232c-162 0 -251 104 -251 297v37c0 316 115 409 277 409c65 0 133 -16 187 -49zM307 219v-14c0 -93 56 -152 146 -152
c93 0 151 53 151 147v13c0 96 -60 146 -148 146s-149 -61 -149 -140z" />
    <glyph glyph-name="uniFF17" unicode="&#xff17;" horiz-adv-x="910" 
d="M704 619l-285 -645h-108l286 635h-392v86h499v-76z" />
    <glyph glyph-name="uniFF18" unicode="&#xff18;" horiz-adv-x="910" 
d="M335 510v-11c0 -71 53 -114 120 -114c68 0 120 43 120 114v11c0 68 -48 109 -120 109c-71 0 -120 -41 -120 -109zM316 177v-11c0 -68 54 -114 140 -114s138 46 138 114v11c0 78 -59 121 -138 121c-78 0 -140 -41 -140 -121zM214 161v17c0 79 55 145 124 166
c-69 33 -103 98 -103 159v14c0 103 79 189 220 189c139 0 220 -86 220 -189v-14c0 -61 -33 -123 -103 -159c70 -21 124 -87 124 -166v-17c0 -115 -90 -198 -241 -198s-241 83 -241 198z" />
    <glyph glyph-name="uniFF19" unicode="&#xff19;" horiz-adv-x="910" 
d="M239 14l38 84c45 -26 98 -44 155 -44c100 0 169 58 173 246c-24 -42 -92 -82 -172 -82c-128 0 -227 89 -227 230v22c0 138 99 236 246 236c160 0 251 -100 251 -293v-37c0 -316 -98 -413 -277 -413c-65 0 -133 18 -187 51zM602 448v14c0 93 -56 154 -146 154
c-93 0 -151 -55 -151 -149v-13c0 -96 63 -148 148 -148c88 0 149 63 149 142z" />
    <glyph glyph-name="uniFF1A" unicode="&#xff1a;" horiz-adv-x="910" 
d="M398 -67v115h114v-115h-114zM398 433v115h114v-115h-114z" />
    <glyph glyph-name="uniFF1B" unicode="&#xff1b;" horiz-adv-x="910" 
d="M408 433v115h114v-115h-114zM376 -175l42 228h115l-77 -228h-80z" />
    <glyph glyph-name="uniFF1C" unicode="&#xff1c;" horiz-adv-x="910" 
d="M329 324v-6l362 -187v-100l-472 250v79l472 250v-99z" />
    <glyph glyph-name="uniFF1D" unicode="&#xff1d;" horiz-adv-x="910" 
d="M224 383v85h462v-85h-462zM224 172v85h462v-85h-462z" />
    <glyph glyph-name="uniFF1E" unicode="&#xff1e;" horiz-adv-x="910" 
d="M581 318v6l-362 187v99l472 -250v-79l-472 -250v100z" />
    <glyph glyph-name="uniFF1F" unicode="&#xff1f;" horiz-adv-x="910" 
d="M488 141h-102v46c0 67 19 98 92 171c72 72 97 89 97 152v13c0 51 -36 95 -119 95c-65 0 -120 -28 -162 -72l-60 69c52 55 122 91 220 91c139 0 221 -73 221 -182v-14c0 -98 -62 -146 -124 -205c-44 -42 -63 -69 -63 -121v-43zM381 -67v115h114v-115h-114z" />
    <glyph glyph-name="uniFF20" unicode="&#xff20;" horiz-adv-x="910" 
d="M716 40c-53 0 -109 26 -129 86h-1c-25 -64 -103 -84 -150 -84c-127 0 -196 78 -196 199v78c0 122 70 199 181 199c74 0 117 -26 136 -58v52h94v-315c0 -56 23 -81 66 -81c66 0 103 47 103 181v11c0 223 -133 358 -376 358c-208 0 -353 -137 -353 -370v-17
c0 -247 140 -384 373 -384c99 0 203 22 285 65l28 -70c-83 -45 -191 -71 -310 -71c-287 0 -459 178 -459 459v19c0 256 167 444 436 444c295 0 457 -176 457 -430v-13c0 -116 -39 -258 -185 -258zM339 303v-46c0 -76 33 -124 104 -124c56 0 109 23 109 104v88
c0 54 -28 103 -109 103c-65 0 -104 -30 -104 -125z" />
    <glyph glyph-name="uniFF21" unicode="&#xff21;" horiz-adv-x="910" 
d="M502 695l269 -721h-104l-76 212h-276l-76 -212h-101l268 721h96zM406 440l-61 -169h216l-60 169c-22 60 -28 79 -48 145c-20 -67 -26 -85 -47 -145z" />
    <glyph glyph-name="uniFF22" unicode="&#xff22;" horiz-adv-x="910" 
d="M196 -26v721h256c153 0 229 -58 229 -176v-21c0 -63 -30 -123 -116 -144c88 -13 149 -65 149 -165v-25c0 -118 -75 -190 -231 -190h-287zM295 310v-250h151c113 0 166 21 166 106v22c0 88 -44 122 -188 122h-129zM416 610h-121v-219h128c100 0 157 18 157 108v18
c0 85 -51 93 -164 93z" />
    <glyph glyph-name="uniFF23" unicode="&#xff23;" horiz-adv-x="910" 
d="M673 131l54 -76c-72 -69 -158 -92 -255 -92c-172 0 -289 105 -289 317v109c0 210 118 317 289 317c99 0 171 -24 238 -77l-51 -81c-65 53 -122 66 -187 66c-109 0 -189 -73 -189 -238v-83c0 -165 80 -238 189 -238c69 0 141 17 201 76z" />
    <glyph glyph-name="uniFF24" unicode="&#xff24;" horiz-adv-x="910" 
d="M184 695h239c198 0 303 -110 303 -309v-103c0 -199 -100 -309 -303 -309h-239v721zM283 608v-546h131c129 0 211 64 211 226v93c0 162 -82 227 -211 227h-131z" />
    <glyph glyph-name="uniFF25" unicode="&#xff25;" horiz-adv-x="910" 
d="M227 695h449v-85h-350v-224h329v-85h-329v-242h357v-85h-456v721z" />
    <glyph glyph-name="uniFF26" unicode="&#xff26;" horiz-adv-x="910" 
d="M232 695h446v-85h-347v-241h326v-85h-326v-310h-99v721z" />
    <glyph glyph-name="uniFF27" unicode="&#xff27;" horiz-adv-x="910" 
d="M731 370v-342c-63 -44 -155 -65 -245 -65c-191 0 -308 105 -308 317v109c0 210 117 317 300 317c93 0 172 -23 239 -76l-51 -80c-63 50 -120 66 -188 66c-125 0 -201 -73 -201 -240v-83c0 -167 83 -240 212 -240c54 0 105 10 143 29v203h-160v85h259z" />
    <glyph glyph-name="uniFF28" unicode="&#xff28;" horiz-adv-x="910" 
d="M622 695h99v-721h-99v332h-335v-332h-99v721h99v-301h335v301z" />
    <glyph glyph-name="uniFF29" unicode="&#xff29;" horiz-adv-x="910" 
d="M405 695h99v-721h-99v721z" />
    <glyph glyph-name="uniFF2A" unicode="&#xff2a;" horiz-adv-x="910" 
d="M643 695v-523c0 -160 -90 -209 -209 -209c-52 0 -120 18 -167 59l47 78c42 -33 77 -45 123 -45c74 0 107 39 107 138v502h99z" />
    <glyph glyph-name="uniFF2B" unicode="&#xff2b;" horiz-adv-x="910" 
d="M714 695l-290 -312l307 -409h-126l-249 337l-79 -85v-252h-99v721h99v-345l316 345h121z" />
    <glyph glyph-name="uniFF2C" unicode="&#xff2c;" horiz-adv-x="910" 
d="M233 695h99v-636h345v-85h-444v721z" />
    <glyph glyph-name="uniFF2D" unicode="&#xff2d;" horiz-adv-x="910" 
d="M413 94l-170 400c-12 30 -21 51 -37 100v-620h-94v721h146l200 -472l195 472h145v-721h-95v620c-14 -52 -21 -70 -34 -100l-172 -400h-84z" />
    <glyph glyph-name="uniFF2E" unicode="&#xff2e;" horiz-adv-x="910" 
d="M186 695h114l280 -486c14 -24 34 -62 51 -105v591h92v-721h-114l-280 484c-15 27 -34 63 -51 106v-590h-92v721z" />
    <glyph glyph-name="uniFF2F" unicode="&#xff2f;" horiz-adv-x="910" 
d="M455 -37c-172 0 -293 105 -293 317v109c0 210 122 317 293 317s293 -107 293 -317v-109c0 -212 -121 -317 -293 -317zM455 616c-112 0 -193 -69 -193 -238v-87c0 -169 81 -238 193 -238c113 0 193 69 193 238v87c0 169 -80 238 -193 238z" />
    <glyph glyph-name="uniFF30" unicode="&#xff30;" horiz-adv-x="910" 
d="M206 -26v721h258c163 0 239 -88 239 -206v-21c0 -117 -82 -213 -239 -213h-159v-281h-99zM458 609h-153v-268h142c104 0 156 42 156 129v18c0 82 -52 121 -145 121z" />
    <glyph glyph-name="uniFF31" unicode="&#xff31;" horiz-adv-x="910" 
d="M445 -37c-172 0 -289 105 -289 317v109c0 210 118 317 289 317s289 -107 289 -317v-109c0 -95 -24 -169 -65 -221l85 -84l-59 -61l-90 89c-44 -26 -99 -40 -160 -40zM445 616c-110 0 -189 -69 -189 -238v-87c0 -169 79 -238 189 -238c33 0 64 6 90 20l-90 90l59 61
l93 -93c24 38 37 90 37 160v87c0 169 -78 238 -189 238z" />
    <glyph glyph-name="uniFF32" unicode="&#xff32;" horiz-adv-x="910" 
d="M297 275v-301h-99v721h261c147 0 230 -83 230 -197v-26c0 -81 -44 -147 -121 -178l143 -320h-107l-130 301h-16h-161zM297 610v-251h138c112 0 155 45 155 116v20c0 70 -45 115 -145 115h-148z" />
    <glyph glyph-name="uniFF33" unicode="&#xff33;" horiz-adv-x="910" 
d="M455 53c102 0 154 48 154 105v16c0 63 -41 95 -158 120c-136 29 -240 71 -240 201v18c0 98 81 193 247 193c88 0 159 -22 220 -63l-47 -77c-53 36 -106 51 -172 51c-90 0 -149 -46 -149 -103v-16c0 -66 59 -90 166 -114c178 -40 233 -103 233 -203v-18
c0 -132 -109 -200 -257 -200c-102 0 -191 37 -251 85l50 81c54 -41 142 -76 204 -76z" />
    <glyph glyph-name="uniFF34" unicode="&#xff34;" horiz-adv-x="910" 
d="M504 -26h-99v636h-220v85h539v-85h-220v-636z" />
    <glyph glyph-name="uniFF35" unicode="&#xff35;" horiz-adv-x="910" 
d="M624 695h99v-432c0 -218 -97 -300 -268 -300s-268 82 -268 300v432h99v-420c0 -162 54 -223 169 -223s169 61 169 223v420z" />
    <glyph glyph-name="uniFF36" unicode="&#xff36;" horiz-adv-x="910" 
d="M138 695h108l209 -596l214 596h102l-272 -721h-93z" />
    <glyph glyph-name="uniFF37" unicode="&#xff37;" horiz-adv-x="910" 
d="M816 695h99l-199 -721h-99l-160 589l-163 -589h-101l-197 721h104l148 -589l161 589h96l161 -589z" />
    <glyph glyph-name="uniFF38" unicode="&#xff38;" horiz-adv-x="910" 
d="M740 695l-221 -349l233 -372h-117l-183 309l-183 -309h-112l233 376l-218 345h118l170 -284l169 284h111z" />
    <glyph glyph-name="uniFF39" unicode="&#xff39;" horiz-adv-x="910" 
d="M751 695l-246 -431v-290h-99v290l-248 431h110l189 -337l184 337h110z" />
    <glyph glyph-name="uniFF3A" unicode="&#xff3a;" horiz-adv-x="910" 
d="M712 695v-73l-414 -562h433v-86h-553v81l409 554h-385v86h510z" />
    <glyph glyph-name="uniFF3B" unicode="&#xff3b;" horiz-adv-x="910" 
d="M870 -84v-86h-264v936h264v-86h-166v-764h166z" />
    <glyph glyph-name="uniFFE6" unicode="&#xffe6;" horiz-adv-x="910" 
d="M12 340v61h102l-72 294h99l64 -294h137l74 294h89l70 -294h133l63 294h95l-72 -294h105v-61h-120l-88 -366h-90l-86 366h-112l-90 -366h-94l-90 366h-117zM218 340l51 -234l58 234h-109zM589 340l56 -234l50 234h-106zM461 575l-43 -174h83z" />
    <glyph glyph-name="uniFF3D" unicode="&#xff3d;" horiz-adv-x="910" 
d="M40 -170v86h166v764h-166v86h264v-936h-264z" />
    <glyph glyph-name="uniFF3E" unicode="&#xff3e;" horiz-adv-x="910" 
d="M671 401h-94l-122 243l-122 -243h-94l171 323h91z" />
    <glyph glyph-name="uniFF3F" unicode="&#xff3f;" horiz-adv-x="910" 
d="M705 -75v-65h-500v65h500z" />
    <glyph glyph-name="uniFF40" unicode="&#xff40;" horiz-adv-x="910" 
d="M567 565h-89l-136 148h116z" />
    <glyph glyph-name="uniFF41" unicode="&#xff41;" horiz-adv-x="910" 
d="M418 -34c-110 0 -180 58 -180 154v27c0 93 59 158 199 158h139v32c0 73 -33 108 -113 108c-64 0 -106 -22 -157 -55l-48 72c53 37 118 69 206 69c122 0 208 -64 208 -174v-383h-93v66h-1c-10 -20 -30 -37 -51 -49c-29 -16 -61 -25 -109 -25zM576 169v54h-137
c-76 0 -106 -31 -106 -83v-14c0 -53 43 -76 95 -76c48 0 82 11 111 34c26 20 37 44 37 85z" />
    <glyph glyph-name="uniFF42" unicode="&#xff42;" horiz-adv-x="910" 
d="M318 730v-272c35 54 96 73 156 73c138 0 214 -85 214 -233v-97c0 -148 -89 -235 -217 -235c-82 0 -130 33 -154 72h-2v-64h-94v756h97zM317 307v-138c0 -57 60 -118 144 -118c82 0 131 61 131 164v67c0 104 -50 164 -131 164c-79 0 -144 -54 -144 -139z" />
    <glyph glyph-name="uniFF43" unicode="&#xff43;" horiz-adv-x="910" 
d="M471 531c90 0 144 -26 189 -60l-46 -73c-51 37 -90 47 -143 47c-72 0 -138 -47 -138 -159v-69c0 -118 68 -164 140 -164s115 21 154 50l47 -74c-38 -32 -102 -63 -202 -63c-151 0 -237 93 -237 250v69c0 157 93 246 236 246z" />
    <glyph glyph-name="uniFF44" unicode="&#xff44;" horiz-adv-x="910" 
d="M595 42h-2c-30 -55 -91 -76 -159 -76c-138 0 -213 85 -213 233v97c0 148 89 235 217 235c83 0 131 -35 153 -67v266h97v-756h-93v68zM592 189v141c0 57 -60 116 -144 116c-82 0 -131 -61 -131 -164v-67c0 -104 50 -164 131 -164c79 0 144 53 144 138z" />
    <glyph glyph-name="uniFF45" unicode="&#xff45;" horiz-adv-x="910" 
d="M458 448c-81 0 -139 -58 -139 -142v-14h274v18c0 84 -52 138 -135 138zM633 99l41 -73c-48 -33 -112 -60 -211 -60c-135 0 -240 75 -240 252v62c0 166 100 251 235 251c140 0 229 -89 229 -245v-73h-368v-4c0 -103 61 -159 148 -159c71 0 119 19 166 49z" />
    <glyph glyph-name="uniFF46" unicode="&#xff46;" horiz-adv-x="910" 
d="M371 -26v464h-90v83h90v54c0 110 55 161 159 161c35 0 76 -6 98 -14l-15 -79c-25 7 -50 10 -74 10c-37 0 -71 -11 -71 -82v-50h144v-83h-144v-464h-97z" />
    <glyph glyph-name="uniFF47" unicode="&#xff47;" horiz-adv-x="910" 
d="M688 521v-540c0 -153 -83 -230 -244 -230c-74 0 -137 23 -182 58l44 76c36 -27 87 -46 141 -46c94 0 144 45 144 142v67c-31 -52 -91 -72 -157 -72c-138 0 -213 85 -213 233v87c0 148 89 235 217 235c83 0 131 -35 153 -67v57h97zM592 199v131c0 57 -60 116 -144 116
c-82 0 -131 -61 -131 -164v-57c0 -104 50 -164 131 -164c79 0 144 53 144 138z" />
    <glyph glyph-name="uniFF48" unicode="&#xff48;" horiz-adv-x="910" 
d="M680 336v-362h-97v340c0 92 -38 131 -119 131c-66 0 -138 -46 -138 -132v-339h-97v756h97v-275c33 49 88 76 162 76c106 0 192 -63 192 -195z" />
    <glyph glyph-name="uniFF49" unicode="&#xff49;" horiz-adv-x="910" 
d="M406 521h97v-547h-97v547zM403 717h103v-106h-103v106z" />
    <glyph glyph-name="uniFF4A" unicode="&#xff4a;" horiz-adv-x="910" 
d="M482 717h103v-106h-103v106zM582 521v-609c0 -110 -55 -161 -159 -161c-35 0 -76 6 -98 14l15 79c25 -7 50 -10 74 -10c37 0 71 11 71 82v605h97z" />
    <glyph glyph-name="uniFF4B" unicode="&#xff4b;" horiz-adv-x="910" 
d="M676 521l-216 -219l229 -328h-122l-174 260l-76 -77v-183h-97v756h97v-455l234 246h125z" />
    <glyph glyph-name="uniFF4C" unicode="&#xff4c;" horiz-adv-x="910" 
d="M406 730h97v-756h-97v756z" />
    <glyph glyph-name="uniFF4D" unicode="&#xff4d;" horiz-adv-x="910" 
d="M830 333v-359h-97v328c0 95 -34 141 -103 141c-61 0 -127 -39 -127 -128v-341h-97v328c0 95 -34 141 -103 141c-60 0 -127 -37 -127 -123v-346h-97v547h96v-74h1c21 48 70 84 146 84c73 0 129 -33 157 -91c35 53 84 91 170 91c112 0 181 -72 181 -198z" />
    <glyph glyph-name="uniFF4E" unicode="&#xff4e;" horiz-adv-x="910" 
d="M680 336v-362h-97v340c0 92 -38 131 -119 131c-66 0 -138 -46 -138 -132v-339h-97v547h94v-69h1c33 51 89 79 164 79c106 0 192 -63 192 -195z" />
    <glyph glyph-name="uniFF4F" unicode="&#xff4f;" horiz-adv-x="910" 
d="M455 531c150 0 244 -91 244 -249v-67c0 -158 -94 -249 -244 -249s-244 91 -244 249v67c0 159 94 249 244 249zM455 51c87 0 146 56 146 172v51c0 116 -59 172 -146 172s-146 -56 -146 -172v-51c0 -116 59 -172 146 -172z" />
    <glyph glyph-name="uniFF50" unicode="&#xff50;" horiz-adv-x="910" 
d="M315 521v-68c32 56 95 78 160 78c138 0 213 -89 213 -233v-97c0 -151 -88 -235 -219 -235c-81 0 -129 36 -151 68v-274h-97v761h94zM317 307v-138c0 -57 60 -118 144 -118c82 0 131 61 131 164v67c0 104 -50 164 -131 164c-79 0 -144 -54 -144 -139z" />
    <glyph glyph-name="uniFF51" unicode="&#xff51;" horiz-adv-x="910" 
d="M688 -240h-97v278c-31 -52 -91 -72 -157 -72c-138 0 -213 85 -213 233v97c0 148 89 235 217 235c83 0 131 -35 153 -67v57h97v-761zM592 189v141c0 57 -60 116 -144 116c-82 0 -131 -61 -131 -164v-67c0 -104 50 -164 131 -164c79 0 144 53 144 138z" />
    <glyph glyph-name="uniFF52" unicode="&#xff52;" horiz-adv-x="910" 
d="M618 520l-29 -94c-19 8 -41 13 -67 13c-72 0 -134 -60 -134 -146v-319h-97v547h94v-87h1c32 61 81 97 161 97c25 0 49 -4 71 -11z" />
    <glyph glyph-name="uniFF53" unicode="&#xff53;" horiz-adv-x="910" 
d="M457 50c72 0 114 27 114 71v8c0 46 -22 61 -125 82c-121 25 -188 64 -188 160v12c0 76 62 148 204 148c74 0 140 -16 194 -54l-43 -73c-36 27 -89 44 -144 44c-81 0 -114 -28 -114 -66v-9c0 -43 33 -59 118 -75c133 -25 196 -65 196 -166v-13c0 -86 -81 -153 -208 -153
c-91 0 -168 26 -220 66l45 76c49 -33 105 -58 171 -58z" />
    <glyph glyph-name="uniFF54" unicode="&#xff54;" horiz-adv-x="910" 
d="M373 127v311h-90v83h90v138h97v-138h144v-83h-144v-311c0 -67 29 -78 70 -78c24 0 47 4 72 13l15 -78c-22 -9 -63 -18 -102 -18c-104 0 -152 51 -152 161z" />
    <glyph glyph-name="uniFF55" unicode="&#xff55;" horiz-adv-x="910" 
d="M231 159v362h97v-340c0 -92 36 -131 117 -131c66 0 136 46 136 132v339h97v-547h-94v69h-1c-33 -51 -87 -79 -162 -79c-106 0 -190 63 -190 195z" />
    <glyph glyph-name="uniFF56" unicode="&#xff56;" horiz-adv-x="910" 
d="M456 65h2l143 456h102l-185 -547h-124l-187 547h105z" />
    <glyph glyph-name="uniFF57" unicode="&#xff57;" horiz-adv-x="910" 
d="M456 400h-2l-110 -426h-114l-142 547h102l100 -446h2l116 446h98l115 -446h2l102 446h96l-140 -547h-114z" />
    <glyph glyph-name="uniFF58" unicode="&#xff58;" horiz-adv-x="910" 
d="M690 521l-173 -263l180 -284h-117l-127 220l-130 -220h-111l183 284l-174 263h117l121 -202l123 202h108z" />
    <glyph glyph-name="uniFF59" unicode="&#xff59;" horiz-adv-x="910" 
d="M455 84h4l144 437h102l-284 -773l-88 31l71 187l-199 555h105z" />
    <glyph glyph-name="uniFF5A" unicode="&#xff5a;" horiz-adv-x="910" 
d="M659 521v-75l-300 -388h315v-84h-438v70l304 392h-284v85h403z" />
    <glyph glyph-name="uniFF5B" unicode="&#xff5b;" horiz-adv-x="910" 
d="M501 268v85c73 1 106 23 106 80v188c0 98 54 145 156 145h107v-86h-91c-57 0 -74 -18 -74 -86v-161c0 -47 -13 -107 -83 -123c68 -15 83 -73 83 -123v-192c0 -68 19 -79 74 -79h91v-86h-107c-102 0 -156 41 -156 138v218c0 58 -33 81 -106 82z" />
    <glyph glyph-name="uniFF5C" unicode="&#xff5c;" horiz-adv-x="910" 
d="M502 765v-935h-94v935h94z" />
    <glyph glyph-name="uniFF5D" unicode="&#xff5d;" horiz-adv-x="910" 
d="M409 353v-85c-73 -1 -106 -24 -106 -82v-218c0 -97 -54 -138 -156 -138h-107v86h91c55 0 74 11 74 79v192c0 50 15 108 83 123c-70 16 -83 76 -83 123v161c0 68 -17 86 -74 86h-91v86h107c102 0 156 -47 156 -145v-188c0 -57 33 -79 106 -80z" />
    <glyph glyph-name="uniFFE3" unicode="&#xffe3;" horiz-adv-x="910" 
d="M905 762v-39h-900v39h900z" />
    <glyph glyph-name="uni3131" unicode="&#x3131;" horiz-adv-x="910" 
d="M734 58h-93v401h-486v86h579v-487z" />
    <glyph glyph-name="uni3132" unicode="&#x3132;" horiz-adv-x="910" 
d="M467 459v86h313v-487h-93v401h-220zM437 545v-487h-93v401h-230v86h323z" />
    <glyph glyph-name="uni3133" unicode="&#x3133;" horiz-adv-x="910" 
d="M419 58h-92v397h-197v86h289v-483zM657 243h-1c-1 -10 -18 -39 -37 -67c-25 -36 -50 -68 -113 -133l-63 62c64 66 95 103 119 141c27 42 47 78 47 145v158h94v-158c0 -67 16 -99 46 -145c25 -39 55 -74 119 -140l-60 -63c-64 67 -92 102 -114 133c-19 27 -36 57 -37 67z
" />
    <glyph glyph-name="uni3134" unicode="&#x3134;" horiz-adv-x="910" 
d="M175 552h95v-408h494v-86h-589v494z" />
    <glyph glyph-name="uni3135" unicode="&#x3135;" horiz-adv-x="910" 
d="M614 243h-1c-3 -14 -6 -30 -31 -68c-21 -33 -40 -61 -103 -134l-67 55c59 67 85 102 109 142c35 60 44 86 44 150v79h-125v81h342v-81h-124v-79c0 -63 8 -91 45 -150c23 -38 50 -75 109 -142l-64 -57c-59 70 -82 103 -103 136c-25 39 -28 54 -31 68zM246 540v-409h15
c44 0 97 3 146 10l7 -85c-56 -8 -108 -11 -164 -11h-97v495h93z" />
    <glyph glyph-name="uni3136" unicode="&#x3136;" horiz-adv-x="910" 
d="M758 231v-57c0 -75 -58 -141 -163 -141c-103 0 -163 66 -163 141v57c0 75 60 141 163 141c105 0 163 -66 163 -141zM238 540v-409h30c44 0 97 3 146 10l7 -85c-56 -8 -108 -11 -164 -11h-112v495h93zM784 485v-76h-382v76h150v85h86v-85h146zM672 182v41
c0 36 -23 78 -77 78s-77 -42 -77 -78v-41c0 -36 23 -78 77 -78s77 42 77 78z" />
    <glyph glyph-name="uni3137" unicode="&#x3137;" horiz-adv-x="910" 
d="M749 56h-580v491h575v-86h-482v-319h487v-86z" />
    <glyph glyph-name="uni3138" unicode="&#x3138;" horiz-adv-x="910" 
d="M782 56h-304v491h301v-86h-208v-319h211v-86zM450 56h-303v491h301v-86h-208v-319h210v-86z" />
    <glyph glyph-name="uni3139" unicode="&#x3139;" horiz-adv-x="910" 
d="M769 45h-596v302h490v126h-490v84h582v-295h-489v-132h503v-85z" />
    <glyph glyph-name="uni313A" unicode="&#x313a;" horiz-adv-x="910" 
d="M785 57h-93v408h-222v86h315v-494zM455 57h-311v288h209v121h-209v85h300v-289h-209v-120h220v-85z" />
    <glyph glyph-name="uni313B" unicode="&#x313b;" horiz-adv-x="910" 
d="M436 56h-304v288h204v119h-204v85h296v-287h-204v-120h212v-85zM694 142v320h-130v-320h130zM787 56h-316v492h316v-492z" />
    <glyph glyph-name="uni313C" unicode="&#x313c;" horiz-adv-x="910" 
d="M698 142v152h-133v-152h133zM791 56h-319v492h93v-169h133v169h93v-492zM434 56h-305v288h206v119h-206v85h298v-287h-206v-120h213v-85z" />
    <glyph glyph-name="uni313D" unicode="&#x313d;" horiz-adv-x="910" 
d="M640 243h-1c-1 -10 -18 -39 -37 -67c-25 -36 -50 -68 -113 -133l-55 54v-41h-304v288h205v119h-205v85h297v-287h-206v-120h213v-28c58 61 88 96 111 133c27 42 47 78 47 145v158h94v-158c0 -67 16 -99 46 -145c25 -39 55 -74 119 -140l-60 -63c-64 67 -92 102 -114 133
c-19 27 -36 57 -37 67z" />
    <glyph glyph-name="uni313E" unicode="&#x313e;" horiz-adv-x="910" 
d="M431 56h-297v288h197v119h-197v85h289v-287h-198v-120h206v-85zM776 56h-311v491h306v-86h-213v-117h204v-84h-204v-118h218v-86z" />
    <glyph glyph-name="uni313F" unicode="&#x313f;" horiz-adv-x="910" 
d="M780 552v-80h-55v-334h59v-82h-345v82h58v334h-54v80h337zM416 56h-291v287h189v122h-189v83h278v-286h-188v-124h201v-82zM581 472v-334h60v334h-60z" />
    <glyph glyph-name="uni3140" unicode="&#x3140;" horiz-adv-x="910" 
d="M406 547v-284h-195v-129h208v-81h-299v289h195v124h-195v81h286zM773 231v-57c0 -75 -58 -141 -163 -141c-103 0 -163 66 -163 141v57c0 75 60 141 163 141c105 0 163 -66 163 -141zM794 485v-76h-368v76h141v85h86v-85h141zM687 182v41c0 36 -23 78 -77 78
s-77 -42 -77 -78v-41c0 -36 23 -78 77 -78s77 42 77 78z" />
    <glyph glyph-name="uni3141" unicode="&#x3141;" horiz-adv-x="910" 
d="M652 142v321h-394v-321h394zM745 56h-580v493h580v-493z" />
    <glyph glyph-name="uni3142" unicode="&#x3142;" horiz-adv-x="910" 
d="M652 141v152h-394v-152h394zM745 55h-580v502h93v-179h394v179h93v-502z" />
    <glyph glyph-name="uni3143" unicode="&#x3143;" horiz-adv-x="910" 
d="M686 142v147h-112v-147h112zM336 142v147h-112v-147h112zM425 56h-291v500h90v-182h112v182h89v-500zM776 56h-291v500h89v-182h112v182h90v-500z" />
    <glyph glyph-name="uni3144" unicode="&#x3144;" horiz-adv-x="910" 
d="M640 243h-1c-1 -10 -18 -39 -37 -67c-25 -36 -50 -68 -113 -133l-60 59v-46h-303v500h93v-182h118v182h92v-448c62 64 92 100 116 138c27 42 47 78 47 145v166h94v-166c0 -67 16 -99 46 -145c25 -39 55 -74 119 -140l-60 -63c-64 67 -92 102 -114 133
c-19 27 -36 57 -37 67zM337 142v147h-118v-147h118z" />
    <glyph glyph-name="uni3145" unicode="&#x3145;" horiz-adv-x="910" 
d="M456 276h-1c-9 -21 -40 -51 -84 -86c-54 -43 -127 -94 -203 -141l-51 74c77 48 134 87 176 119c107 82 116 113 116 204v120h93v-120c0 -91 9 -122 116 -204c42 -32 99 -71 176 -119l-51 -73c-76 47 -149 98 -203 141c-44 35 -75 65 -84 85z" />
    <glyph glyph-name="uni3146" unicode="&#x3146;" horiz-adv-x="910" 
d="M579 567h93v-157c0 -113 26 -147 189 -298l-59 -63c-98 85 -153 147 -177 186c-23 -35 -82 -99 -170 -184c-88 85 -147 149 -170 184c-24 -39 -79 -101 -177 -186l-59 63c163 151 189 185 189 298v157h93v-157c0 -112 10 -122 124 -242c114 120 124 130 124 242v157z" />
    <glyph glyph-name="uni3147" unicode="&#x3147;" horiz-adv-x="910" 
d="M167 283v47c0 131 122 232 288 232c165 0 288 -101 288 -232v-47c0 -131 -123 -232 -288 -232c-166 0 -288 101 -288 232zM455 473c-118 0 -195 -66 -195 -146v-41c0 -80 77 -146 195 -146c117 0 194 66 194 146v41c0 80 -77 146 -194 146z" />
    <glyph glyph-name="uni3148" unicode="&#x3148;" horiz-adv-x="910" 
d="M754 556v-86h-252v-27c0 -91 9 -122 116 -204c42 -32 99 -71 176 -119l-51 -73c-76 47 -149 98 -203 141c-44 35 -75 65 -84 85h-1c-9 -21 -40 -51 -84 -86c-54 -43 -127 -94 -203 -141l-51 74c77 48 134 87 176 119c107 82 116 113 116 204v27h-253v86h598z" />
    <glyph glyph-name="uni3149" unicode="&#x3149;" horiz-adv-x="910" 
d="M455 61c-82 80 -139 141 -161 175c-21 -35 -70 -93 -166 -176l-58 62c163 151 180 183 180 288v61h-129v85h668v-85h-129v-61c0 -105 17 -137 180 -288l-58 -62c-93 83 -145 141 -166 176c-22 -34 -79 -95 -161 -175zM455 178c105 110 115 123 115 232v61h-230v-61
c0 -109 10 -122 115 -232z" />
    <glyph glyph-name="uni314A" unicode="&#x314a;" horiz-adv-x="910" 
d="M764 516v-85h-262c0 -84 12 -116 116 -195c42 -32 96 -68 173 -116l-51 -73c-76 47 -146 95 -200 138c-44 35 -75 64 -84 84h-1c-9 -21 -40 -50 -84 -85c-54 -43 -124 -91 -200 -138l-51 74c77 48 131 84 173 116c103 79 115 111 116 195h-263v85h263v106h93v-106h262z
" />
    <glyph glyph-name="uni314B" unicode="&#x314b;" horiz-adv-x="910" 
d="M749 556v-507h-95v198l-499 -7l-3 84l502 6v141h-488v85h583z" />
    <glyph glyph-name="uni314C" unicode="&#x314c;" horiz-adv-x="910" 
d="M763 55h-592v492h584v-85h-492v-118h483v-85h-483v-119h500v-85z" />
    <glyph glyph-name="uni314D" unicode="&#x314d;" horiz-adv-x="910" 
d="M781 139v-85h-652v85h135v321h-126v85h634v-85h-126v-321h135zM357 460v-321h196v321h-196z" />
    <glyph glyph-name="uni314E" unicode="&#x314e;" horiz-adv-x="910" 
d="M455 12c-156 0 -262 63 -262 172v28c0 108 106 172 262 172s262 -64 262 -172v-28c0 -109 -106 -172 -262 -172zM769 515v-84h-628v84h268v115h93v-115h267zM455 299c-110 0 -170 -35 -170 -92v-18c0 -57 60 -92 170 -92s170 35 170 92v18c0 57 -60 92 -170 92z" />
    <glyph glyph-name="uni314F" unicode="&#x314f;" horiz-adv-x="910" 
d="M672 410v-86h-189v-464h-99v922h99v-372h189z" />
    <glyph glyph-name="uni3150" unicode="&#x3150;" horiz-adv-x="910" 
d="M611 782v-922h-97v464h-118v-419h-97v858h97v-353h118v372h97z" />
    <glyph glyph-name="uni3151" unicode="&#x3151;" horiz-adv-x="910" 
d="M599 518v-86h-189v-138h189v-86h-189v-348h-99v922h99v-264h189z" />
    <glyph glyph-name="uni3152" unicode="&#x3152;" horiz-adv-x="910" 
d="M611 782v-922h-97v348h-118v-303h-97v858h97v-245h118v264h97zM396 433v-140h118v140h-118z" />
    <glyph glyph-name="uni3153" unicode="&#x3153;" horiz-adv-x="910" 
d="M599 -140h-99v464h-189v86h189v372h99v-922z" />
    <glyph glyph-name="uni3154" unicode="&#x3154;" horiz-adv-x="910" 
d="M392 411v352h97v-858h-97v420h-154v86h154zM672 782v-922h-97v922h97z" />
    <glyph glyph-name="uni3155" unicode="&#x3155;" horiz-adv-x="910" 
d="M599 -140h-99v348h-189v86h189v138h-189v86h189v264h99v-922z" />
    <glyph glyph-name="uni3156" unicode="&#x3156;" horiz-adv-x="910" 
d="M238 210v86h154v139h-154v86h154v242h97v-858h-97v305h-154zM672 782v-922h-97v922h97z" />
    <glyph glyph-name="uni3157" unicode="&#x3157;" horiz-adv-x="910" 
d="M505 148h373v-84h-846v84h373v342h100v-342z" />
    <glyph glyph-name="uni3158" unicode="&#x3158;" horiz-adv-x="910" 
d="M759 -140h-98v922h98v-349h136v-86h-136v-487zM603 160l8 -86c-166 -16 -280 -21 -596 -21v86c91 0 167 0 232 2v268h98v-266c98 4 174 9 258 17z" />
    <glyph glyph-name="uni3159" unicode="&#x3159;" horiz-adv-x="910" 
d="M859 782v-922h-97v478h-87v-453h-97v881h97v-342h87v358h97zM544 162l4 -84c-127 -8 -289 -11 -497 -11v86h186v255h101v-254c80 2 146 4 206 8z" />
    <glyph glyph-name="uni315A" unicode="&#x315a;" horiz-adv-x="910" 
d="M835 -140h-98v922h98v-922zM678 160l9 -83c-169 -17 -350 -24 -612 -24v86c89 -1 167 0 239 1v269h101v-266c96 3 180 9 263 17z" />
    <glyph glyph-name="uni315B" unicode="&#x315b;" horiz-adv-x="910" 
d="M643 148h235v-84h-846v84h236v342h100v-342h175v342h100v-342z" />
    <glyph glyph-name="uni315C" unicode="&#x315c;" horiz-adv-x="910" 
d="M405 241h-373v84h846v-84h-373v-343h-100v343z" />
    <glyph glyph-name="uni315D" unicode="&#x315d;" horiz-adv-x="910" 
d="M835 -140h-98v202h-202v85h202v635h98v-922zM410 -111h-100v349c-72 -1 -149 -2 -236 -2v86c264 -1 437 5 603 21l8 -83c-86 -9 -175 -15 -275 -19v-352z" />
    <glyph glyph-name="uni315E" unicode="&#x315e;" horiz-adv-x="910" 
d="M584 173v593h97v-880h-97v204h-158v83h158zM858 782v-922h-97v922h97zM346 -81h-98v315c-58 -1 -121 -1 -196 -1v85c207 0 317 1 484 11l4 -82c-71 -6 -132 -9 -194 -11v-317z" />
    <glyph glyph-name="uni315F" unicode="&#x315f;" horiz-adv-x="910" 
d="M832 -140h-98v922h98v-922zM422 -112h-101v321c-73 -2 -154 -2 -244 -2v86c264 -1 433 5 599 21l8 -83c-83 -9 -167 -15 -262 -19v-324z" />
    <glyph glyph-name="uni3160" unicode="&#x3160;" horiz-adv-x="910" 
d="M267 241h-235v84h846v-84h-235v-343h-100v343h-176v-343h-100v343z" />
    <glyph glyph-name="uni3161" unicode="&#x3161;" horiz-adv-x="910" 
d="M32 178h846v-84h-846v84z" />
    <glyph glyph-name="uni3162" unicode="&#x3162;" horiz-adv-x="910" 
d="M675 184l9 -83c-169 -17 -345 -24 -607 -24v86c264 -1 432 5 598 21zM832 -140h-98v922h98v-922z" />
    <glyph glyph-name="uni3163" unicode="&#x3163;" horiz-adv-x="910" 
d="M504 -140h-99v922h99v-922z" />
    <glyph glyph-name="uni3165" unicode="&#x3165;" horiz-adv-x="910" 
d="M470 545h92v-401h211v-86h-303v487zM137 545h93v-401h211v-86h-304v487z" />
    <glyph glyph-name="uni3166" unicode="&#x3166;" horiz-adv-x="910" 
d="M773 58h-305v488h295v-86h-203v-316h213v-86zM136 545h93v-401h212v-86h-305v487z" />
    <glyph glyph-name="uni3167" unicode="&#x3167;" horiz-adv-x="910" 
d="M600 239h-1c-1 -10 -18 -39 -37 -67c-25 -36 -50 -68 -113 -133l-60 59v-41h-294v487h93v-401h201v-39c62 64 92 100 116 138c27 42 47 78 47 145v158h94v-158c0 -67 16 -99 46 -145c25 -39 55 -74 119 -140l-60 -63c-64 67 -92 102 -114 133c-19 27 -36 57 -37 67z" />
    <glyph glyph-name="uni3168" unicode="&#x3168;" horiz-adv-x="910" 
d="M127 545h93v-401h190v-86h-283v487zM537 141h135l-67 220zM605 593l177 -535h-355z" />
    <glyph glyph-name="uni3169" unicode="&#x3169;" horiz-adv-x="910" 
d="M576 51l-39 35v-29h-91v408h-138v86h229v-411c41 50 68 90 84 124c24 54 27 80 27 132v153h92v-153c0 -52 3 -78 27 -132c20 -43 47 -85 110 -155l-63 -58c-49 56 -80 102 -100 137c-11 19 -16 32 -19 43c-3 -11 -9 -27 -18 -43c-20 -37 -50 -81 -101 -137zM314 57h-273
v288h145v121h-145v85h236v-289h-146v-120h183v-85z" />
    <glyph glyph-name="uni316A" unicode="&#x316a;" horiz-adv-x="910" 
d="M765 58h-281v488h271v-86h-179v-316h189v-86zM441 56h-296v288h197v119h-197v85h288v-287h-196v-120h204v-85z" />
    <glyph glyph-name="uni316B" unicode="&#x316b;" horiz-adv-x="910" 
d="M598 49l-50 39v-32h-245v500h87v-186h71v186h87v-429c35 53 55 92 72 127c24 54 28 95 28 147v148h92v-148c0 -52 4 -93 28 -147c20 -43 49 -94 90 -152l-66 -53c-40 55 -60 90 -76 124c-9 18 -18 38 -21 49c-3 -12 -11 -33 -19 -49c-17 -36 -35 -68 -78 -124zM279 57
h-234v288h131v121h-131v85h220v-289h-132v-120h146v-85zM461 140v147h-71v-147h71z" />
    <glyph glyph-name="uni316C" unicode="&#x316c;" horiz-adv-x="910" 
d="M419 58h-297v286h198v119h-198v85h290v-287h-198v-118h205v-85zM543 141h135l-67 220zM611 593l177 -535h-355z" />
    <glyph glyph-name="uni316D" unicode="&#x316d;" horiz-adv-x="910" 
d="M781 548v-85h-324v85h324zM445 58h-317v286h203v119h-203v85h295v-287h-203v-118h225v-85zM781 234v-49c0 -66 -41 -145 -159 -145c-117 0 -161 79 -161 145v49c0 66 44 145 161 145c118 0 159 -79 159 -145zM693 191v37c0 40 -23 72 -71 72c-47 0 -73 -32 -73 -72v-37
c0 -40 26 -72 73 -72c48 0 71 32 71 72z" />
    <glyph glyph-name="uni316E" unicode="&#x316e;" horiz-adv-x="910" 
d="M679 142v152h-109v-152h109zM337 142v320h-106v-320h106zM770 56h-291v492h91v-169h109v169h91v-492zM428 56h-288v492h288v-492z" />
    <glyph glyph-name="uni316F" unicode="&#x316f;" horiz-adv-x="910" 
d="M609 239h-1c-1 -10 -18 -39 -37 -67c-25 -36 -50 -68 -113 -133l-56 55v-38h-304v492h304v-440c59 61 89 97 112 134c27 42 47 78 47 145v158h94v-158c0 -67 16 -99 46 -145c25 -39 55 -74 119 -140l-60 -63c-64 67 -92 102 -114 133c-19 27 -36 57 -37 67zM310 142v320
h-121v-320h121z" />
    <glyph glyph-name="uni3170" unicode="&#x3170;" horiz-adv-x="910" 
d="M327 142v320h-121v-320h121zM419 56h-304v492h304v-492zM549 139h134l-67 221zM616 591l178 -535h-355z" />
    <glyph glyph-name="uni3171" unicode="&#x3171;" horiz-adv-x="910" 
d="M598 371v208h-288v-208h288zM690 286h-471v378h471v-378zM627 116v-30c0 -60 -60 -124 -172 -124c-111 0 -171 64 -171 124v30c0 60 60 124 171 124c112 0 172 -64 172 -124zM538 92v18c0 34 -35 56 -83 56c-47 0 -82 -22 -82 -56v-18c0 -34 35 -56 82 -56
c48 0 83 22 83 56z" />
    <glyph glyph-name="uni3172" unicode="&#x3172;" horiz-adv-x="910" 
d="M354 143v145h-123v-145h123zM771 56h-92v406h-193v86h285v-492zM445 57h-306v491h92v-175h123v175h91v-491z" />
    <glyph glyph-name="uni3173" unicode="&#x3173;" horiz-adv-x="910" 
d="M343 143v145h-110v-145h110zM767 58h-281v488h271v-86h-178v-316h188v-86zM434 57h-292v491h91v-175h110v175h91v-491z" />
    <glyph glyph-name="uni3174" unicode="&#x3174;" horiz-adv-x="910" 
d="M367 51l-36 32v-27h-251v492h88v-178h76v178h87v-405c39 49 65 88 81 121c24 54 27 80 27 132v153h92v-153c0 -52 3 -78 27 -132c20 -43 47 -85 110 -155l-63 -58c-49 56 -80 102 -100 137c-11 19 -16 32 -19 43c-3 -11 -9 -27 -18 -43c-20 -37 -50 -81 -101 -137z
M828 57h-91v405h-148v86h239v-491zM244 140v147h-76v-147h76z" />
    <glyph glyph-name="uni3175" unicode="&#x3175;" horiz-adv-x="910" 
d="M371 49l-50 39v-32h-240v492h84v-178h73v178h83v-421c35 53 55 92 72 127c24 54 28 95 28 147v148h92v-148c0 -52 4 -93 28 -147c16 -36 39 -77 70 -123v417h204v-86h-114v-318h125v-86h-215v28l-46 -37c-40 55 -60 90 -76 124c-9 18 -18 38 -21 49
c-3 -12 -11 -33 -19 -49c-17 -36 -35 -68 -78 -124zM165 140h73v147h-73v-147z" />
    <glyph glyph-name="uni3176" unicode="&#x3176;" horiz-adv-x="910" 
d="M609 243h-1c-3 -14 -11 -35 -31 -68c-18 -30 -36 -61 -98 -134l-63 51v-36h-300v492h92v-175h116v175h92v-448c56 65 86 110 108 150c27 50 36 78 36 138v79h-115v81h322v-81h-114v-79c0 -59 6 -84 38 -138c22 -38 52 -87 111 -154l-64 -57c-59 70 -79 103 -98 136
c-20 35 -28 54 -31 68zM324 142v146h-116v-146h116z" />
    <glyph glyph-name="uni3177" unicode="&#x3177;" horiz-adv-x="910" 
d="M342 143v145h-110v-145h110zM768 57h-283v489h274v-86h-182v-115h176v-86h-176v-116h191v-86zM433 57h-292v491h91v-175h110v175h91v-491z" />
    <glyph glyph-name="uni3178" unicode="&#x3178;" horiz-adv-x="910" 
d="M594 387v84h-280v-84h280zM686 301h-463v363h91v-108h280v108h92v-363zM630 116v-30c0 -60 -54 -124 -175 -124c-120 0 -174 64 -174 124v30c0 60 54 124 174 124c121 0 175 -64 175 -124zM538 92v18c0 34 -35 56 -83 56c-47 0 -82 -22 -82 -56v-18c0 -34 35 -56 82 -56
c48 0 83 22 83 56z" />
    <glyph glyph-name="uni3179" unicode="&#x3179;" horiz-adv-x="910" 
d="M435 290h-248v359h84v-109h81v109h83v-359zM352 370v90h-81v-90h81zM723 290h-248v359h84v-109h80v109h84v-359zM639 370v90h-80v-90h80zM630 116v-30c0 -60 -54 -124 -175 -124c-120 0 -174 64 -174 124v30c0 60 54 124 174 124c121 0 175 -64 175 -124zM538 92v18
c0 34 -35 56 -83 56c-47 0 -82 -22 -82 -56v-18c0 -34 35 -56 82 -56c48 0 83 22 83 56z" />
    <glyph glyph-name="uni317A" unicode="&#x317a;" horiz-adv-x="910" 
d="M786 58h-93v402h-224v86h317v-488zM338 243h-1c-1 -10 -18 -39 -37 -67c-25 -36 -52 -68 -115 -133l-63 62c64 66 96 103 121 141c27 42 47 78 47 145v158h94v-158c0 -67 16 -99 46 -145c26 -39 57 -74 121 -140l-60 -63c-64 67 -94 102 -116 133c-19 27 -36 57 -37 67z
" />
    <glyph glyph-name="uni317B" unicode="&#x317b;" horiz-adv-x="910" 
d="M307 243h-1c-1 -10 -18 -39 -37 -67c-25 -36 -49 -68 -110 -133l-63 59c62 67 90 106 116 144c28 41 47 78 47 145v158h94v-158c0 -67 15 -100 46 -145c25 -37 51 -73 107 -134v433h93v-401h208v-86h-301v36l-51 -51c-62 67 -89 102 -111 133c-19 27 -36 57 -37 67z" />
    <glyph glyph-name="uni317C" unicode="&#x317c;" horiz-adv-x="910" 
d="M307 243h-1c-1 -10 -18 -39 -37 -67c-25 -36 -49 -68 -110 -133l-63 59c62 67 90 106 116 144c28 41 47 78 47 145v158h94v-158c0 -67 15 -100 46 -145c25 -37 51 -73 107 -134v434h288v-86h-195v-316h204v-86h-297v36l-51 -51c-62 67 -89 102 -111 133
c-19 27 -36 57 -37 67z" />
    <glyph glyph-name="uni317D" unicode="&#x317d;" horiz-adv-x="910" 
d="M307 243h-1c-1 -10 -18 -39 -37 -67c-25 -36 -49 -68 -110 -133l-63 59c62 67 90 106 116 144c28 41 47 78 47 145v158h94v-158c0 -67 15 -100 46 -145c26 -38 51 -73 108 -135v437h92v-175h116v175h91v-492h-299v39l-52 -52c-62 67 -89 102 -111 133
c-19 27 -36 57 -37 67zM715 142v146h-116v-146h116z" />
    <glyph glyph-name="uni317E" unicode="&#x317e;" horiz-adv-x="910" 
d="M614 243h-1c-3 -14 -6 -30 -31 -68c-21 -33 -39 -64 -114 -143c-74 75 -102 113 -124 144c-19 27 -36 57 -37 67h-1c-1 -10 -18 -39 -37 -67c-25 -36 -49 -68 -110 -133l-63 59c62 67 90 106 116 144c28 41 47 78 47 145v158h94v-158c0 -67 15 -100 46 -145
c18 -27 36 -53 66 -88c24 31 41 54 56 80c35 60 44 86 44 150v79h-125v81h342v-81h-124v-79c0 -63 8 -91 45 -150c23 -38 50 -75 109 -142l-64 -57c-59 70 -82 103 -103 136c-25 39 -28 54 -31 68z" />
    <glyph glyph-name="uni317F" unicode="&#x317f;" horiz-adv-x="910" 
d="M454 638l239 -572h-476zM351 148h209c-28 68 -78 193 -106 264z" />
    <glyph glyph-name="uni3180" unicode="&#x3180;" horiz-adv-x="910" 
d="M269 556c107 0 170 -73 170 -216v-79c0 -143 -64 -216 -170 -216c-104 0 -168 73 -168 216v79c0 143 64 216 168 216zM269 126c52 0 79 40 79 144v61c0 104 -27 143 -79 143c-50 0 -77 -39 -77 -143v-61c0 -104 27 -144 77 -144zM638 556c107 0 170 -73 170 -216v-79
c0 -143 -64 -216 -170 -216c-104 0 -168 73 -168 216v79c0 143 64 216 168 216zM638 126c52 0 79 40 79 144v61c0 104 -27 143 -79 143c-50 0 -77 -39 -77 -143v-61c0 -104 27 -144 77 -144z" />
    <glyph glyph-name="uni3181" unicode="&#x3181;" horiz-adv-x="910" 
d="M454 -17c-164 0 -256 118 -256 224v69c0 95 75 199 210 218v163h92v-163c136 -19 211 -123 211 -218v-69c0 -106 -92 -224 -257 -224zM454 414c-96 0 -162 -64 -162 -148v-49c0 -83 66 -147 162 -147c97 0 163 64 163 147v49c0 84 -66 148 -163 148z" />
    <glyph glyph-name="uni3182" unicode="&#x3182;" horiz-adv-x="910" 
d="M605 243h-1c-1 -10 -18 -39 -37 -67c-25 -36 -49 -68 -110 -133l-62 57c-28 -34 -71 -52 -128 -52c-102 0 -161 60 -161 174v52c0 96 42 153 116 169v122h90v-121c77 -16 120 -76 120 -172v-48c0 -45 -10 -82 -27 -110c54 59 80 96 105 132c28 41 47 78 47 145v158h94
v-158c0 -67 15 -100 46 -145c27 -39 54 -76 116 -143l-60 -60c-62 67 -89 102 -111 133c-19 27 -36 57 -37 67zM343 232v32c0 68 -23 107 -76 107c-49 0 -72 -39 -72 -107v-32c0 -68 23 -107 72 -107c53 0 76 39 76 107z" />
    <glyph glyph-name="uni3183" unicode="&#x3183;" horiz-adv-x="910" 
d="M453 272v-48c0 -114 -59 -176 -165 -176c-102 0 -161 60 -161 174v52c0 96 42 153 116 169v122h90v-121c77 -16 120 -76 120 -172zM615 591l177 -535h-354zM364 232v32c0 68 -23 107 -76 107c-49 0 -72 -39 -72 -107v-32c0 -68 23 -107 72 -107c53 0 76 39 76 107z
M547 139h135l-67 221z" />
    <glyph glyph-name="uni3184" unicode="&#x3184;" horiz-adv-x="910" 
d="M693 670v-82h-87v-205h96v-82h-495v82h96v205h-86v82h476zM630 116v-30c0 -60 -54 -124 -175 -124c-120 0 -174 64 -174 124v30c0 60 54 124 174 124c121 0 175 -64 175 -124zM392 383h125v205h-125v-205zM538 92v18c0 34 -35 56 -83 56c-47 0 -82 -22 -82 -56v-18
c0 -34 35 -56 82 -56c48 0 83 22 83 56z" />
    <glyph glyph-name="uni3185" unicode="&#x3185;" horiz-adv-x="910" 
d="M425 233v-59c0 -71 -45 -140 -141 -140s-141 69 -141 140v59c0 71 45 140 141 140s141 -69 141 -140zM761 233v-59c0 -71 -45 -140 -141 -140s-141 69 -141 140v59c0 71 45 140 141 140s141 -69 141 -140zM777 485v-74h-308v74h111v85h85v-85h112zM441 485v-74h-308v74
h111v85h85v-85h112zM341 182v43c0 30 -9 78 -57 78s-57 -48 -57 -78v-43c0 -30 9 -78 57 -78s57 48 57 78zM677 182v43c0 30 -9 78 -57 78s-57 -48 -57 -78v-43c0 -30 9 -78 57 -78s57 48 57 78z" />
    <glyph glyph-name="uni3186" unicode="&#x3186;" horiz-adv-x="910" 
d="M704 642v-85h-499v85h499zM454 3c-134 0 -234 87 -234 211v46c0 124 100 212 234 212c135 0 234 -88 234 -212v-46c0 -124 -99 -211 -234 -211zM454 388c-90 0 -146 -54 -146 -133v-36c0 -79 56 -132 146 -132c91 0 146 53 146 132v36c0 79 -55 133 -146 133z" />
    <glyph glyph-name="uni3187" unicode="&#x3187;" horiz-adv-x="910" 
d="M895 312v-86h-136v-366h-98v922h98v-245h136v-86h-136v-139h136zM603 160l8 -86c-166 -16 -280 -21 -596 -21v86h134v270h96v-269l123 4v265h96v-260c47 3 92 7 139 11z" />
    <glyph glyph-name="uni3188" unicode="&#x3188;" horiz-adv-x="910" 
d="M859 782v-922h-97v369h-87v-344h-97v881h97v-229h87v245h97zM544 162l4 -84c-127 -8 -289 -11 -497 -11v86h96v255h95v-255l102 2v253h95v-251c38 1 72 3 105 5zM675 456v-146h87v146h-87z" />
    <glyph glyph-name="uni3189" unicode="&#x3189;" horiz-adv-x="910" 
d="M678 160l9 -83c-169 -17 -350 -24 -612 -24v86c52 0 100 -1 146 0v270h96v-269c42 1 81 2 119 4v265h96v-261c50 3 98 7 146 12zM835 -140h-98v922h98v-922z" />
    <glyph glyph-name="uni318A" unicode="&#x318a;" horiz-adv-x="910" 
d="M309 -111h-98v373h-137v86c264 -1 437 5 603 21l8 -83c-60 -6 -121 -11 -186 -15v-382h-98v378c-30 -1 -60 -3 -92 -3v-375zM835 -140h-98v130h-171v80h171v68h-171v80h171v564h98v-922z" />
    <glyph glyph-name="uni318B" unicode="&#x318b;" horiz-adv-x="910" 
d="M412 -81h-96v346l-74 -2v-344h-96v344h-94v85c207 0 317 1 484 11l4 -82c-46 -4 -88 -7 -128 -9v-349zM585 220v546h97v-880h-97v104h-114v81h114v68h-114v81h114zM858 782v-922h-97v922h97z" />
    <glyph glyph-name="uni318C" unicode="&#x318c;" horiz-adv-x="910" 
d="M311 -111h-98v373h-139v86c264 -1 437 5 603 21l8 -83c-51 -5 -103 -10 -157 -13v-384h-98v379c-38 -2 -78 -3 -119 -4v-375zM835 -140h-98v922h98v-922z" />
    <glyph glyph-name="uni318D" unicode="&#x318d;" horiz-adv-x="910" 
d="M455 267c-39 0 -65 29 -65 63c0 37 27 65 65 65c40 0 64 -28 65 -65c0 -34 -25 -63 -65 -63z" />
    <glyph glyph-name="uni318E" unicode="&#x318e;" horiz-adv-x="910" 
d="M324 267c-39 0 -65 29 -65 63c0 37 27 65 65 65c40 0 64 -28 65 -65c0 -34 -25 -63 -65 -63zM650 -140h-98v922h98v-922z" />
    <glyph glyph-name="uni2170" unicode="&#x2170;" horiz-adv-x="910" 
d="M406 521h97v-547h-97v547zM403 717h103v-106h-103v106z" />
    <glyph glyph-name="uni2171" unicode="&#x2171;" horiz-adv-x="910" 
d="M280 521h97v-547h-97v547zM277 717h103v-106h-103v106zM533 521h97v-547h-97v547zM530 717h103v-106h-103v106z" />
    <glyph glyph-name="uni2172" unicode="&#x2172;" horiz-adv-x="910" 
d="M178 521h97v-547h-97v547zM175 717h103v-106h-103v106zM407 521h97v-547h-97v547zM404 717h103v-106h-103v106zM635 521h97v-547h-97v547zM632 717h103v-106h-103v106z" />
    <glyph glyph-name="uni2173" unicode="&#x2173;" horiz-adv-x="910" 
d="M561 68h2l108 453h100l-148 -547h-124l-150 547h103zM212 521h97v-547h-97v547zM209 717h103v-106h-103v106z" />
    <glyph glyph-name="uni2174" unicode="&#x2174;" horiz-adv-x="910" 
d="M456 65h2l143 456h102l-185 -547h-124l-187 547h105z" />
    <glyph glyph-name="uni2175" unicode="&#x2175;" horiz-adv-x="910" 
d="M351 68h2l108 453h100l-148 -547h-124l-150 547h103zM601 521h97v-547h-97v547zM598 717h103v-106h-103v106z" />
    <glyph glyph-name="uni2176" unicode="&#x2176;" horiz-adv-x="910" 
d="M283 68h2l102 453h98l-142 -547h-120l-145 547h101zM528 521h95v-547h-95v547zM525 717h101v-106h-101v106zM710 521h95v-547h-95v547zM707 717h101v-106h-101v106z" />
    <glyph glyph-name="uni2177" unicode="&#x2177;" horiz-adv-x="910" 
d="M241 78h2l94 443h96l-136 -547h-112l-139 547h99zM464 521h89v-547h-89v547zM461 717h95v-106h-95v106zM616 521h89v-547h-89v547zM613 717h95v-106h-95v106zM768 521h89v-547h-89v547zM765 717h95v-106h-95v106z" />
    <glyph glyph-name="uni2178" unicode="&#x2178;" horiz-adv-x="910" 
d="M791 521l-153 -263l160 -284h-108l-117 220l-115 -220h-105l163 284l-154 263h108l111 -202l108 202h102zM212 521h97v-547h-97v547zM209 717h103v-106h-103v106z" />
    <glyph glyph-name="uni2179" unicode="&#x2179;" horiz-adv-x="910" 
d="M690 521l-173 -263l180 -284h-117l-127 220l-130 -220h-111l183 284l-174 263h117l121 -202l123 202h108z" />
    <glyph glyph-name="uni2160" unicode="&#x2160;" horiz-adv-x="910" 
d="M405 695h99v-721h-99v721z" />
    <glyph glyph-name="uni2161" unicode="&#x2161;" horiz-adv-x="910" 
d="M284 695h99v-721h-99v721zM527 695h99v-721h-99v721z" />
    <glyph glyph-name="uni2162" unicode="&#x2162;" horiz-adv-x="910" 
d="M169 695h99v-721h-99v721zM406 695h99v-721h-99v721zM641 695h99v-721h-99v721z" />
    <glyph glyph-name="uni2163" unicode="&#x2163;" horiz-adv-x="910" 
d="M318 695h105l158 -596l158 596h101l-213 -721h-99zM172 695h99v-721h-99v721z" />
    <glyph glyph-name="uni2164" unicode="&#x2164;" horiz-adv-x="910" 
d="M138 695h108l209 -596l214 596h102l-272 -721h-93z" />
    <glyph glyph-name="uni2165" unicode="&#x2165;" horiz-adv-x="910" 
d="M70 695h105l158 -596l158 596h101l-213 -721h-99zM639 695h99v-721h-99v721z" />
    <glyph glyph-name="uni2166" unicode="&#x2166;" horiz-adv-x="910" 
d="M26 695h101l144 -596l140 596h98l-187 -721h-104zM548 695h92v-721h-92v721zM722 695h92v-721h-92v721z" />
    <glyph glyph-name="uni2167" unicode="&#x2167;" horiz-adv-x="910" 
d="M33 695h97l96 -596l92 596h94l-135 -721h-104zM449 695h87v-721h-87v721zM606 695h87v-721h-87v721zM763 695h87v-721h-87v721z" />
    <glyph glyph-name="uni2168" unicode="&#x2168;" horiz-adv-x="910" 
d="M832 695l-185 -350l200 -371h-114l-152 308l-147 -308h-109l196 377l-181 344h111l139 -284l136 284h106zM186 695h97v-721h-97v721z" />
    <glyph glyph-name="uni2169" unicode="&#x2169;" horiz-adv-x="910" 
d="M740 695l-221 -349l233 -372h-117l-183 309l-183 -309h-112l233 376l-218 345h118l170 -284l169 284h111z" />
    <glyph glyph-name="Alpha" unicode="&#x391;" horiz-adv-x="673" 
d="M384 695l269 -721h-104l-76 212h-276l-76 -212h-101l268 721h96zM288 440l-61 -169h216l-60 169c-22 60 -28 79 -48 145c-20 -67 -26 -85 -47 -145z" />
    <glyph glyph-name="Beta" unicode="&#x392;" horiz-adv-x="635" 
d="M82 -26v721h256c153 0 229 -58 229 -176v-21c0 -63 -30 -123 -116 -144c88 -13 149 -65 149 -165v-25c0 -118 -75 -190 -231 -190h-287zM181 310v-250h151c113 0 166 21 166 106v22c0 88 -44 122 -188 122h-129zM302 610h-121v-219h128c100 0 157 18 157 108v18
c0 85 -51 93 -164 93z" />
    <glyph glyph-name="Gamma" unicode="&#x393;" horiz-adv-x="536" 
d="M181 -26h-99v721h444v-83h-345v-638z" />
    <glyph glyph-name="Delta" unicode="&#x394;" horiz-adv-x="671" 
d="M20 -26l265 721h103l263 -721h-631zM150 57h370l-183 531z" />
    <glyph glyph-name="Epsilon" unicode="&#x395;" horiz-adv-x="598" 
d="M82 695h449v-85h-350v-224h329v-85h-329v-242h357v-85h-456v721z" />
    <glyph glyph-name="Zeta" unicode="&#x396;" horiz-adv-x="613" 
d="M560 695v-73l-414 -562h433v-86h-553v81l409 554h-385v86h510z" />
    <glyph glyph-name="Eta" unicode="&#x397;" horiz-adv-x="697" 
d="M516 695h99v-721h-99v332h-335v-332h-99v721h99v-301h335v301z" />
    <glyph glyph-name="Theta" unicode="&#x398;" horiz-adv-x="706" 
d="M510 376v-80h-315v80h315zM353 -37c-172 0 -293 105 -293 317v109c0 210 122 317 293 317s293 -107 293 -317v-109c0 -212 -121 -317 -293 -317zM353 616c-112 0 -193 -69 -193 -238v-87c0 -169 81 -238 193 -238c113 0 193 69 193 238v87c0 169 -80 238 -193 238z" />
    <glyph glyph-name="Iota" unicode="&#x399;" horiz-adv-x="263" 
d="M82 695h99v-721h-99v721z" />
    <glyph glyph-name="Kappa" unicode="&#x39a;" horiz-adv-x="655" 
d="M618 695l-290 -312l307 -409h-126l-249 337l-79 -85v-252h-99v721h99v-345l316 345h121z" />
    <glyph glyph-name="Lambda" unicode="&#x39b;" horiz-adv-x="673" 
d="M653 -26h-108l-209 596l-214 -596h-102l272 721h93z" />
    <glyph glyph-name="Mu" unicode="&#x39c;" horiz-adv-x="850" 
d="M383 94l-170 400c-12 30 -21 51 -37 100v-620h-94v721h146l200 -472l195 472h145v-721h-95v620c-14 -52 -21 -70 -34 -100l-172 -400h-84z" />
    <glyph glyph-name="Nu" unicode="&#x39d;" horiz-adv-x="701" 
d="M82 695h114l280 -486c14 -24 34 -62 51 -105v591h92v-721h-114l-280 484c-15 27 -34 63 -51 106v-590h-92v721z" />
    <glyph glyph-name="Xi" unicode="&#x39e;" horiz-adv-x="593" 
d="M60 59h473v-85h-473v85zM92 301v85h403v-85h-403zM526 610h-466v85h466v-85z" />
    <glyph glyph-name="Omicron" unicode="&#x39f;" horiz-adv-x="706" 
d="M353 -37c-172 0 -293 105 -293 317v109c0 210 122 317 293 317s293 -107 293 -317v-109c0 -212 -121 -317 -293 -317zM353 616c-112 0 -193 -69 -193 -238v-87c0 -169 81 -238 193 -238c113 0 193 69 193 238v87c0 169 -80 238 -193 238z" />
    <glyph glyph-name="Pi" unicode="&#x3a0;" horiz-adv-x="677" 
d="M595 695v-721h-99v638h-315v-638h-99v721h513z" />
    <glyph glyph-name="Rho" unicode="&#x3a1;" horiz-adv-x="617" 
d="M82 -26v721h258c163 0 239 -88 239 -206v-21c0 -117 -82 -213 -239 -213h-159v-281h-99zM334 609h-153v-268h142c104 0 156 42 156 129v18c0 82 -52 121 -145 121z" />
    <glyph glyph-name="Sigma" unicode="&#x3a3;" horiz-adv-x="561" 
d="M60 695h454v-85h-330l201 -278l-204 -273h340v-85h-461v70l213 287l-213 297v67z" />
    <glyph glyph-name="Tau" unicode="&#x3a4;" horiz-adv-x="571" 
d="M335 -26h-99v636h-220v85h539v-85h-220v-636z" />
    <glyph glyph-name="Upsilon" unicode="&#x3a5;" horiz-adv-x="625" 
d="M609 695l-246 -431v-290h-99v290l-248 431h110l189 -337l184 337h110z" />
    <glyph glyph-name="Phi" unicode="&#x3a6;" horiz-adv-x="752" 
d="M55 323v53c0 144 103 237 274 251v91h93v-91c171 -14 275 -107 275 -251v-53c0 -145 -104 -237 -275 -251v-98h-93v98c-171 14 -274 107 -274 251zM601 329v41c0 96 -58 156 -179 168v-378c121 12 179 72 179 169zM151 370v-41c0 -97 57 -157 178 -169v378
c-121 -12 -178 -72 -178 -168z" />
    <glyph glyph-name="Chi" unicode="&#x3a7;" horiz-adv-x="655" 
d="M613 695l-221 -349l233 -372h-117l-183 309l-183 -309h-112l233 376l-218 345h118l170 -284l169 284h111z" />
    <glyph glyph-name="Psi" unicode="&#x3a8;" horiz-adv-x="718" 
d="M310 -26v185c-152 17 -250 114 -250 295v221h98v-197c0 -158 63 -214 152 -228v425h98v-425c89 14 152 70 152 228v197h98v-221c0 -181 -99 -278 -250 -295v-185h-98z" />
    <glyph glyph-name="Omega" unicode="&#x3a9;" horiz-adv-x="746" 
d="M373 617c-112 0 -187 -66 -187 -235v-88c0 -133 48 -208 122 -232v-88h-288v86h152c-48 41 -84 120 -84 223v109c0 210 114 314 285 314s285 -104 285 -314v-109c0 -103 -36 -182 -84 -223h152v-86h-288v88c74 24 122 99 122 232v88c0 169 -75 235 -187 235z" />
    <glyph glyph-name="alpha" unicode="&#x3b1;" horiz-adv-x="591" 
d="M417 -26v71h-1c-25 -52 -87 -79 -149 -79c-142 0 -217 87 -217 231v103c0 147 86 231 213 231c79 0 127 -33 153 -76v66h97v-547h-96zM147 286v-79c0 -115 56 -156 131 -156c61 0 138 34 138 129v137c0 63 -46 129 -138 129c-82 0 -131 -46 -131 -160z" />
    <glyph glyph-name="beta" unicode="&#x3b2;" horiz-adv-x="581" 
d="M489 559v-16c0 -98 -44 -150 -110 -172c84 -10 162 -59 162 -175v-27c0 -124 -89 -203 -203 -203c-81 0 -136 32 -163 73v-279h-97v768c0 141 94 208 210 208c136 0 201 -85 201 -177zM175 515v-337c0 -58 37 -127 150 -127c75 0 118 51 118 120v22
c0 105 -60 138 -185 134v78c103 0 133 48 133 129v16c0 50 -23 103 -103 103c-69 0 -113 -42 -113 -138z" />
    <glyph glyph-name="gamma" unicode="&#x3b3;" horiz-adv-x="519" 
d="M10 521h101l150 -455l150 455h98l-201 -554v-207h-97v205z" />
    <glyph glyph-name="delta" unicode="&#x3b4;" horiz-adv-x="572" 
d="M232 613v-3c0 -40 56 -63 174 -144c85 -59 116 -135 116 -224v-27c0 -158 -86 -249 -236 -249s-236 91 -236 249v27c0 140 84 228 199 236c-75 39 -114 87 -114 141v5c0 54 43 112 164 112c67 0 122 -14 162 -35l-31 -79c-48 25 -89 31 -129 31c-56 0 -69 -25 -69 -40z
M286 51c87 0 138 56 138 172v11c0 116 -51 172 -138 172s-138 -56 -138 -172v-11c0 -116 51 -172 138 -172z" />
    <glyph glyph-name="epsilon" unicode="&#x3b5;" horiz-adv-x="488" 
d="M435 496l-27 -73c-47 23 -102 30 -141 30c-74 0 -107 -27 -107 -64v-9c0 -51 38 -84 113 -84h67v-77h-67c-73 0 -125 -17 -125 -85v-9c0 -57 51 -78 121 -78c50 0 105 12 159 48l40 -72c-52 -41 -144 -57 -208 -57c-139 0 -214 54 -214 154v14c0 74 53 120 129 127
c-76 12 -115 64 -115 121v14c0 86 75 135 205 135c66 0 119 -10 170 -35z" />
    <glyph glyph-name="zeta" unicode="&#x3b6;" horiz-adv-x="450" 
d="M349 -175l-57 62c34 23 56 39 56 62c0 25 -46 30 -103 47c-126 38 -205 92 -205 233v23c0 148 92 296 220 394h-170v84h330l9 -60c-161 -102 -292 -253 -292 -409v-19c0 -107 65 -138 161 -167c118 -36 147 -57 147 -119c0 -61 -45 -95 -96 -131z" />
    <glyph glyph-name="eta" unicode="&#x3b7;" horiz-adv-x="599" 
d="M529 336v-576h-97v554c0 92 -38 131 -119 131c-66 0 -138 -46 -138 -132v-339h-97v547h94v-69h1c33 51 89 79 164 79c106 0 192 -63 192 -195z" />
    <glyph glyph-name="theta" unicode="&#x3b8;" horiz-adv-x="574" 
d="M287 736c177 0 234 -154 234 -339v-94c0 -185 -57 -339 -234 -339s-234 154 -234 339v94c0 186 57 339 234 339zM287 49c114 0 136 119 136 262v3h-272v-3c0 -143 22 -262 136 -262zM287 651c-112 0 -135 -115 -136 -254h272c-1 139 -24 254 -136 254z" />
    <glyph glyph-name="iota" unicode="&#x3b9;" horiz-adv-x="277" 
d="M256 58l11 -80c-18 -7 -51 -12 -75 -12c-84 0 -115 45 -115 118v429h97v-406c0 -39 7 -56 44 -56c15 0 29 4 38 7z" />
    <glyph glyph-name="kappa" unicode="&#x3ba;" horiz-adv-x="557" 
d="M537 521l-217 -222l227 -325h-122l-172 256l-78 -79v-177h-97v547h97v-252l237 252h125z" />
    <glyph glyph-name="lambda" unicode="&#x3bb;" horiz-adv-x="520" 
d="M262 411h-4l-143 -437h-105l197 555l-35 100c-6 17 -12 26 -30 26c-12 0 -25 -5 -39 -12l-27 71c21 13 51 22 75 22c56 0 83 -19 102 -71l257 -691h-102z" />
    <glyph glyph-name="mu" unicode="&#x3bc;" horiz-adv-x="603" 
d="M78 -240v761h97v-340c0 -79 61 -130 133 -130c66 0 120 52 120 131v339h97v-547h-94v69h-1c-18 -54 -80 -77 -124 -77c-66 0 -105 25 -131 68v-274h-97z" />
    <glyph glyph-name="nu" unicode="&#x3bd;" horiz-adv-x="516" 
d="M259 65h2l143 456h102l-185 -547h-124l-187 547h105z" />
    <glyph glyph-name="xi" unicode="&#x3be;" horiz-adv-x="461" 
d="M46 212v14c0 111 82 165 162 171c-69 12 -136 63 -136 154v19c0 90 67 166 208 166c59 0 125 -10 176 -47l-43 -72c-42 28 -85 36 -132 36c-85 0 -112 -49 -112 -91v-10c0 -77 61 -115 159 -115h46v-84h-49c-109 0 -181 -31 -181 -128v-11c0 -85 67 -110 163 -139
c118 -36 147 -53 147 -119c0 -61 -43 -95 -94 -131l-57 62c34 23 54 38 54 61c0 25 -46 32 -103 48c-123 35 -208 85 -208 216z" />
    <glyph glyph-name="omicron" unicode="&#x3bf;" horiz-adv-x="588" 
d="M294 531c150 0 244 -91 244 -249v-67c0 -158 -94 -249 -244 -249s-244 91 -244 249v67c0 159 94 249 244 249zM294 51c87 0 146 56 146 172v51c0 116 -59 172 -146 172s-146 -56 -146 -172v-51c0 -116 59 -172 146 -172z" />
    <glyph glyph-name="pi" unicode="&#x3c0;" horiz-adv-x="576" 
d="M529 58l11 -80c-18 -7 -51 -12 -75 -12c-84 0 -114 45 -114 118v352h-126v-462h-96v462h-113v85h544v-85h-113v-329c0 -39 7 -56 44 -56c15 0 29 4 38 7z" />
    <glyph glyph-name="rho" unicode="&#x3c1;" horiz-adv-x="588" 
d="M304 531c150 0 234 -91 234 -249v-67c0 -158 -73 -249 -221 -249c-67 0 -124 28 -150 68v-274h-97v522c0 159 84 249 234 249zM304 51c87 0 136 56 136 172v51c0 116 -49 172 -136 172s-136 -56 -136 -172v-51c0 -116 49 -172 136 -172z" />
    <glyph glyph-name="sigma" unicode="&#x3c3;" horiz-adv-x="588" 
d="M301 521h267v-83h-101c54 -42 71 -93 71 -166v-57c0 -158 -94 -249 -244 -249s-244 91 -244 249v57c0 159 90 249 251 249zM294 51c87 0 146 56 146 172v41c0 116 -59 172 -146 172s-146 -56 -146 -172v-41c0 -116 59 -172 146 -172z" />
    <glyph glyph-name="tau" unicode="&#x3c4;" horiz-adv-x="552" 
d="M414 63l19 -79c-26 -12 -61 -18 -103 -18c-80 0 -115 47 -115 120v350h-199v85h520v-85h-224v-329c0 -39 7 -56 44 -56c23 0 42 6 58 12z" />
    <glyph glyph-name="upsilon" unicode="&#x3c5;" horiz-adv-x="582" 
d="M291 -34c-159 0 -221 84 -221 235v320h97v-303c0 -135 51 -165 124 -165s124 30 124 165v303h97v-320c0 -151 -62 -235 -221 -235z" />
    <glyph glyph-name="phi" unicode="&#x3c6;" horiz-adv-x="680" 
d="M387 -240h-96v209c-148 17 -243 110 -243 254v51c0 160 116 257 292 257s292 -98 292 -257v-51c0 -145 -96 -238 -245 -254v-209zM536 270c0 108 -64 158 -149 171v-387c87 12 149 64 149 173v43zM144 227c0 -107 62 -157 147 -171v385c-85 -14 -147 -64 -147 -171v-43z
" />
    <glyph glyph-name="chi" unicode="&#x3c7;" horiz-adv-x="558" 
d="M208 154l-106 257c-9 21 -16 36 -34 36c-12 0 -23 -5 -32 -9l-26 70c21 14 53 23 82 23c48 0 77 -23 92 -64l96 -249l123 295h104l-168 -357l117 -285c9 -21 16 -33 34 -33c12 0 23 4 32 8l26 -72c-21 -14 -53 -23 -82 -23c-48 0 -76 22 -92 63l-106 276l-147 -330h-105z
" />
    <glyph glyph-name="psi" unicode="&#x3c8;" horiz-adv-x="726" 
d="M411 -240h-96v209c-141 14 -245 92 -245 252v300h96v-290c0 -115 62 -163 149 -174v464h96v-464c86 11 149 59 149 174v290h96v-300c0 -160 -105 -238 -245 -252v-209z" />
    <glyph glyph-name="omega" unicode="&#x3c9;" horiz-adv-x="752" 
d="M378 53h-2c-20 -55 -74 -87 -134 -87c-102 0 -187 70 -187 258v22c0 97 40 216 91 291l84 -44c-43 -77 -76 -156 -76 -251v-18c0 -101 36 -171 98 -171c49 0 76 47 76 113v218h96v-218c0 -66 27 -113 76 -113c62 0 99 70 99 171v18c0 95 -33 174 -76 251l83 44
c51 -75 91 -194 91 -291v-22c0 -188 -85 -258 -187 -258c-60 0 -112 32 -132 87z" />
    <glyph glyph-name="SF100000" unicode="&#x2500;" horiz-adv-x="920" 
d="M920 315v-29h-920v29h920z" />
    <glyph glyph-name="SF110000" unicode="&#x2502;" horiz-adv-x="920" 
d="M475 800v-1000h-29v1000h29z" />
    <glyph glyph-name="SF010000" unicode="&#x250c;" horiz-adv-x="920" 
d="M920 315v-29h-445v-486h-29v515h474z" />
    <glyph glyph-name="SF030000" unicode="&#x2510;" horiz-adv-x="920" 
d="M475 315v-515h-29v486h-446v29h475z" />
    <glyph glyph-name="SF040000" unicode="&#x2518;" horiz-adv-x="920" 
d="M475 800v-514h-475v29h446v485h29z" />
    <glyph glyph-name="SF020000" unicode="&#x2514;" horiz-adv-x="920" 
d="M920 315v-29h-474v514h29v-485h445z" />
    <glyph glyph-name="SF080000" unicode="&#x251c;" horiz-adv-x="920" 
d="M920 315v-29h-445v-486h-29v1000h29v-485h445z" />
    <glyph glyph-name="SF060000" unicode="&#x252c;" horiz-adv-x="920" 
d="M920 315v-29h-445v-486h-29v486h-446v29h920z" />
    <glyph glyph-name="SF090000" unicode="&#x2524;" horiz-adv-x="920" 
d="M475 800v-1000h-29v486h-446v29h446v485h29z" />
    <glyph glyph-name="SF070000" unicode="&#x2534;" horiz-adv-x="920" 
d="M920 315v-29h-920v29h446v485h29v-485h445z" />
    <glyph glyph-name="SF050000" unicode="&#x253c;" horiz-adv-x="920" 
d="M920 314v-29h-445v-485h-29v485h-446v29h446v486h29v-486h445z" />
    <glyph glyph-name="uni2501" unicode="&#x2501;" horiz-adv-x="920" 
d="M920 325v-54h-920v54h920z" />
    <glyph glyph-name="uni2503" unicode="&#x2503;" horiz-adv-x="920" 
d="M487 800v-1000h-54v1000h54z" />
    <glyph glyph-name="uni250F" unicode="&#x250f;" horiz-adv-x="920" 
d="M920 325v-54h-433v-471h-54v525h487z" />
    <glyph glyph-name="uni2513" unicode="&#x2513;" horiz-adv-x="920" 
d="M487 325v-525h-54v471h-433v54h487z" />
    <glyph glyph-name="uni251B" unicode="&#x251b;" horiz-adv-x="920" 
d="M487 800v-529h-487v54h433v475h54z" />
    <glyph glyph-name="uni2517" unicode="&#x2517;" horiz-adv-x="920" 
d="M920 325v-54h-487v529h54v-475h433z" />
    <glyph glyph-name="uni2523" unicode="&#x2523;" horiz-adv-x="920" 
d="M920 325v-54h-433v-471h-54v1000h54v-475h433z" />
    <glyph glyph-name="uni2533" unicode="&#x2533;" horiz-adv-x="920" 
d="M920 325v-54h-433v-471h-54v471h-433v54h920z" />
    <glyph glyph-name="uni252B" unicode="&#x252b;" horiz-adv-x="920" 
d="M487 800v-1000h-54v471h-433v54h433v475h54z" />
    <glyph glyph-name="uni253B" unicode="&#x253b;" horiz-adv-x="920" 
d="M920 325v-54h-920v54h433v475h54v-475h433z" />
    <glyph glyph-name="uni254B" unicode="&#x254b;" horiz-adv-x="920" 
d="M920 325v-54h-433v-471h-54v471h-433v54h433v475h54v-475h433z" />
    <glyph glyph-name="uni2520" unicode="&#x2520;" horiz-adv-x="920" 
d="M920 318v-36h-423v-482h-76v1000h76v-482h423z" />
    <glyph glyph-name="uni252F" unicode="&#x252f;" horiz-adv-x="920" 
d="M920 336v-72h-441v-464h-38v464h-441v72h920z" />
    <glyph glyph-name="uni2528" unicode="&#x2528;" horiz-adv-x="920" 
d="M498 800v-1000h-76v482h-422v36h422v482h76z" />
    <glyph glyph-name="uni2537" unicode="&#x2537;" horiz-adv-x="920" 
d="M920 336v-72h-920v72h441v464h38v-464h441z" />
    <glyph glyph-name="uni253F" unicode="&#x253f;" horiz-adv-x="920" 
d="M920 336v-72h-441v-464h-38v464h-441v72h441v464h38v-464h441z" />
    <glyph glyph-name="uni251D" unicode="&#x251d;" horiz-adv-x="920" 
d="M920 336v-72h-441v-464h-38v1000h38v-464h441z" />
    <glyph glyph-name="uni2530" unicode="&#x2530;" horiz-adv-x="920" 
d="M920 318v-36h-422v-482h-76v482h-422v36h920z" />
    <glyph glyph-name="uni2525" unicode="&#x2525;" horiz-adv-x="920" 
d="M479 800v-1000h-38v464h-441v72h441v464h38z" />
    <glyph glyph-name="uni2538" unicode="&#x2538;" horiz-adv-x="920" 
d="M920 318v-36h-920v36h422v482h76v-482h422z" />
    <glyph glyph-name="uni2542" unicode="&#x2542;" horiz-adv-x="920" 
d="M920 318v-36h-422v-482h-76v482h-422v36h422v482h76v-482h422z" />
    <glyph glyph-name="uni2512" unicode="&#x2512;" horiz-adv-x="920" 
d="M498 318v-518h-76v482h-422v36h498z" />
    <glyph glyph-name="uni2511" unicode="&#x2511;" horiz-adv-x="920" 
d="M479 336v-536h-38v464h-441v72h479z" />
    <glyph glyph-name="uni251A" unicode="&#x251a;" horiz-adv-x="920" 
d="M498 800v-518h-498v36h422v482h76z" />
    <glyph glyph-name="uni2519" unicode="&#x2519;" horiz-adv-x="920" 
d="M479 800v-536h-479v72h441v464h38z" />
    <glyph glyph-name="uni2516" unicode="&#x2516;" horiz-adv-x="920" 
d="M920 318v-36h-498v518h76v-482h422z" />
    <glyph glyph-name="uni2515" unicode="&#x2515;" horiz-adv-x="920" 
d="M920 336v-72h-479v536h38v-464h441z" />
    <glyph glyph-name="uni250E" unicode="&#x250e;" horiz-adv-x="920" 
d="M920 318v-36h-422v-482h-76v518h498z" />
    <glyph glyph-name="uni250D" unicode="&#x250d;" horiz-adv-x="920" 
d="M920 336v-72h-441v-464h-38v536h479z" />
    <glyph glyph-name="uni251E" unicode="&#x251e;" horiz-adv-x="920" 
d="M920 318v-36h-442l1 -482h-38v500h-19v500h76v-482h422z" />
    <glyph glyph-name="uni251F" unicode="&#x251f;" horiz-adv-x="920" 
d="M920 318v-36h-422v-482h-76v500h19v500h38v-482h441z" />
    <glyph glyph-name="uni2521" unicode="&#x2521;" horiz-adv-x="920" 
d="M920 336v-72h-441v-464h-38v500h-19v500h76v-464h422z" />
    <glyph glyph-name="uni2522" unicode="&#x2522;" horiz-adv-x="920" 
d="M920 336v-72h-422v-464h-76v500h19v500h38v-464h441z" />
    <glyph glyph-name="uni2526" unicode="&#x2526;" horiz-adv-x="920" 
d="M498 800v-500h-19v-500h-38v482h-441v36h422v482h76z" />
    <glyph glyph-name="uni2527" unicode="&#x2527;" horiz-adv-x="920" 
d="M498 300v-500h-76v482h-422v36h441v482h38v-500h19z" />
    <glyph glyph-name="uni2529" unicode="&#x2529;" horiz-adv-x="920" 
d="M498 800v-500h-19v-500h-38v464h-441v72h422v464h76z" />
    <glyph glyph-name="uni252A" unicode="&#x252a;" horiz-adv-x="920" 
d="M498 300v-500h-76v464h-422v72h441v464h38v-500h19z" />
    <glyph glyph-name="uni252D" unicode="&#x252d;" horiz-adv-x="920" 
d="M920 318v-36h-441v-482h-38v464h-441v72h460v-18h460z" />
    <glyph glyph-name="uni252E" unicode="&#x252e;" horiz-adv-x="920" 
d="M920 336v-72h-441v-464h-38v482h-441v36h460v18h460z" />
    <glyph glyph-name="uni2531" unicode="&#x2531;" horiz-adv-x="920" 
d="M920 318v-36h-422v-482h-76v464h-422v72h460v-18h460z" />
    <glyph glyph-name="uni2532" unicode="&#x2532;" horiz-adv-x="920" 
d="M920 336v-72h-422v-464h-76v482h-422v36h460v18h460z" />
    <glyph glyph-name="uni2535" unicode="&#x2535;" horiz-adv-x="920" 
d="M920 318v-36h-460v-18h-460v72h441v464h38v-482h441z" />
    <glyph glyph-name="uni2536" unicode="&#x2536;" horiz-adv-x="920" 
d="M920 336v-72h-460v18h-460v36h441v482h38v-464h441z" />
    <glyph glyph-name="uni2539" unicode="&#x2539;" horiz-adv-x="920" 
d="M920 318v-36h-460v-18h-460v72h422v464h76v-482h422z" />
    <glyph glyph-name="uni253A" unicode="&#x253a;" horiz-adv-x="920" 
d="M920 336v-72h-460v18h-460v36h422v482h76v-464h422z" />
    <glyph glyph-name="uni253D" unicode="&#x253d;" horiz-adv-x="920" 
d="M920 318v-36h-441v-482h-38v464h-441v76h441v460h38v-482h441z" />
    <glyph glyph-name="uni253E" unicode="&#x253e;" horiz-adv-x="920" 
d="M920 336v-72h-441v-464h-38v482h-441v36h441v482h38v-464h441z" />
    <glyph glyph-name="uni2540" unicode="&#x2540;" horiz-adv-x="920" 
d="M920 318v-36h-441v-482h-38v482h-441v36h422v482h76v-482h422z" />
    <glyph glyph-name="uni2541" unicode="&#x2541;" horiz-adv-x="920" 
d="M920 318v-36h-422v-482h-76v482h-422v36h441v482h38v-482h441z" />
    <glyph glyph-name="uni2543" unicode="&#x2543;" horiz-adv-x="920" 
d="M920 318v-36h-441v-482h-38v464h-441v72h422v464h76v-482h422z" />
    <glyph glyph-name="uni2544" unicode="&#x2544;" horiz-adv-x="920" 
d="M920 336v-72h-441v-464h-38v482h-441v36h422v482h76v-464h422z" />
    <glyph glyph-name="uni2545" unicode="&#x2545;" horiz-adv-x="920" 
d="M920 318v-36h-422v-482h-76v464h-422v72h441v464h38v-482h441z" />
    <glyph glyph-name="uni2546" unicode="&#x2546;" horiz-adv-x="920" 
d="M920 336v-72h-422v-464h-76v482h-422v36h441v482h38v-464h441z" />
    <glyph glyph-name="uni2547" unicode="&#x2547;" horiz-adv-x="920" 
d="M920 336v-72h-441v-464h-38v464h-441v72h422v464h76v-464h422z" />
    <glyph glyph-name="uni2548" unicode="&#x2548;" horiz-adv-x="920" 
d="M920 336v-72h-422v-464h-76v464h-422v72h441v464h38v-464h441z" />
    <glyph glyph-name="uni2549" unicode="&#x2549;" horiz-adv-x="920" 
d="M920 318v-36h-422v-482h-76v464h-422v72h422v464h76v-482h422z" />
    <glyph glyph-name="uni254A" unicode="&#x254a;" horiz-adv-x="920" 
d="M920 336v-72h-422v-464h-76v482h-422v36h422v482h76v-464h422z" />
    <glyph glyph-name="uni3395" unicode="&#x3395;" horiz-adv-x="910" 
d="M527 -26h-96v43c-25 -33 -63 -51 -114 -51c-54 0 -90 19 -116 49v-255h-97v761h97v-347c0 -65 36 -121 115 -121c67 0 114 48 114 148v320h97v-547zM790 74l48 -63c-27 -26 -63 -45 -112 -45c-84 0 -132 34 -132 134v412c0 103 22 193 126 193c105 0 124 -91 124 -193
v-89c0 -158 -53 -255 -155 -307v-16c0 -37 15 -49 41 -49c29 0 46 11 60 23zM689 496v-286c35 34 60 108 60 212v74c0 66 0 124 -29 124c-31 0 -31 -58 -31 -124z" />
    <glyph glyph-name="uni3396" unicode="&#x3396;" horiz-adv-x="910" 
d="M71 521h86v-39c17 36 50 49 86 49c44 0 77 -20 92 -60c17 33 48 60 98 60c73 0 120 -47 120 -143v-414h-94v394c0 59 -11 85 -46 85c-37 0 -54 -37 -54 -88v-391h-94v399c0 58 -14 80 -45 80c-34 0 -55 -29 -55 -87v-392h-94v547zM804 74l48 -63
c-27 -26 -63 -45 -112 -45c-84 0 -132 34 -132 134v412c0 103 22 193 126 193c105 0 124 -91 124 -193v-89c0 -158 -53 -255 -155 -307v-16c0 -37 15 -49 41 -49c29 0 46 11 60 23zM703 496v-286c35 34 60 108 60 212v74c0 66 0 124 -29 124c-31 0 -31 -58 -31 -124z" />
    <glyph glyph-name="uni3397" unicode="&#x3397;" horiz-adv-x="910" 
d="M495 -26h-96v51c-23 -37 -78 -59 -130 -59c-134 0 -206 86 -206 235v98c0 149 77 232 204 232c64 0 105 -18 131 -49v213h97v-721zM160 289v-78c0 -106 42 -166 116 -166c67 0 122 45 122 131v154c0 56 -47 123 -122 123c-79 0 -116 -59 -116 -164zM774 74l48 -63
c-27 -26 -63 -45 -112 -45c-84 0 -132 34 -132 134v412c0 103 22 193 126 193c105 0 124 -91 124 -193v-89c0 -158 -53 -255 -155 -307v-16c0 -37 15 -49 41 -49c29 0 46 11 60 23zM673 496v-286c35 34 60 108 60 212v74c0 66 0 124 -29 124c-31 0 -31 -58 -31 -124z" />
    <glyph glyph-name="afii61289" unicode="&#x2113;" horiz-adv-x="910" 
d="M561 77l46 -63c-25 -28 -67 -48 -120 -48c-98 0 -139 47 -139 133v417c0 103 31 190 133 190c108 0 132 -88 132 -190v-95c0 -158 -65 -254 -166 -305v-14c0 -36 14 -55 46 -55c34 0 52 15 68 30zM447 495v-284c37 31 68 104 68 209v75c0 65 -3 123 -34 123
s-34 -58 -34 -123z" />
    <glyph glyph-name="uni3398" unicode="&#x3398;" horiz-adv-x="910" 
d="M781 74l48 -63c-27 -26 -63 -45 -112 -45c-84 0 -132 34 -132 134v412c0 103 22 193 126 193c105 0 124 -91 124 -193v-89c0 -158 -53 -255 -155 -307v-16c0 -37 15 -49 41 -49c29 0 46 11 60 23zM559 521l-190 -210l200 -337h-109l-152 269l-61 -68v-201h-97v721h97
v-403l200 229h112zM680 496v-286c35 34 60 108 60 212v74c0 66 0 124 -29 124c-31 0 -31 -58 -31 -124z" />
    <glyph glyph-name="uni33C4" unicode="&#x33c4;" horiz-adv-x="910" 
d="M310 531c67 0 117 -26 153 -60l-46 -70c-34 30 -60 46 -110 46c-72 0 -111 -48 -111 -160v-71c0 -118 38 -165 110 -165c51 0 80 13 122 47l49 -69c-31 -29 -80 -63 -172 -63c-151 0 -205 92 -205 249v71c0 157 67 245 210 245zM687 531c67 0 117 -26 153 -60l-46 -70
c-34 30 -60 46 -110 46c-72 0 -111 -48 -111 -160v-71c0 -118 38 -165 110 -165c51 0 80 13 122 47l49 -69c-31 -29 -80 -63 -172 -63c-151 0 -205 92 -205 249v71c0 157 67 245 210 245z" />
    <glyph glyph-name="uni33A3" unicode="&#x33a3;" horiz-adv-x="910" 
d="M757 727l-35 34c16 20 42 34 76 34c52 0 78 -24 78 -57v-5c0 -17 -7 -38 -31 -48c30 -8 41 -30 41 -52v-4c0 -37 -25 -67 -88 -67c-33 0 -59 10 -80 27l28 46c16 -14 32 -19 44 -19c19 0 28 7 28 19v4c0 12 -7 19 -25 19h-20v47h18c14 0 19 7 19 18v3c0 8 -6 16 -22 16
c-11 0 -21 -4 -31 -15zM31 521h84v-41c17 39 45 51 76 51c36 0 63 -22 71 -51c12 30 40 51 78 51c59 0 92 -42 92 -142v-415h-93v396c0 52 -4 80 -28 80c-23 0 -34 -30 -34 -78v-398h-93v408c0 53 -6 68 -27 68c-24 0 -33 -32 -33 -84v-392h-93v547zM477 521h84v-41
c17 39 45 51 76 51c36 0 63 -22 71 -51c12 30 40 51 78 51c59 0 92 -42 92 -142v-415h-93v396c0 52 -4 80 -28 80c-23 0 -34 -30 -34 -78v-398h-93v408c0 53 -6 68 -27 68c-24 0 -33 -32 -33 -84v-392h-93v547z" />
    <glyph glyph-name="uni33A4" unicode="&#x33a4;" horiz-adv-x="910" 
d="M757 727l-35 34c16 20 42 34 76 34c52 0 78 -24 78 -57v-5c0 -17 -7 -38 -31 -48c30 -8 41 -30 41 -52v-4c0 -37 -25 -67 -88 -67c-33 0 -59 10 -80 27l28 46c16 -14 32 -19 44 -19c19 0 28 7 28 19v4c0 12 -7 19 -25 19h-20v47h18c14 0 19 7 19 18v3c0 8 -6 16 -22 16
c-11 0 -21 -4 -31 -15zM224 531c67 0 111 -26 143 -60l-52 -63c-26 28 -54 39 -91 39c-55 0 -96 -37 -96 -157v-76c0 -118 27 -163 96 -163c43 0 68 12 103 44l53 -66c-28 -29 -75 -63 -158 -63c-152 0 -189 90 -189 247v76c0 157 59 242 191 242zM397 521h86v-39
c17 36 50 49 86 49c44 0 77 -20 92 -60c17 33 48 60 98 60c73 0 120 -47 120 -143v-414h-94v394c0 59 -11 85 -46 85c-37 0 -54 -37 -54 -88v-391h-94v399c0 58 -14 80 -45 80c-34 0 -55 -29 -55 -87v-392h-94v547z" />
    <glyph glyph-name="uni33A5" unicode="&#x33a5;" horiz-adv-x="910" 
d="M757 727l-35 34c16 20 42 34 76 34c52 0 78 -24 78 -57v-5c0 -17 -7 -38 -31 -48c30 -8 41 -30 41 -52v-4c0 -37 -25 -67 -88 -67c-33 0 -59 10 -80 27l28 46c16 -14 32 -19 44 -19c19 0 28 7 28 19v4c0 12 -7 19 -25 19h-20v47h18c14 0 19 7 19 18v3c0 8 -6 16 -22 16
c-11 0 -21 -4 -31 -15zM851 333v-359h-97v328c0 95 -34 141 -103 141c-61 0 -127 -39 -127 -128v-341h-97v328c0 95 -34 141 -103 141c-60 0 -127 -37 -127 -123v-346h-97v547h96v-74h1c21 48 70 84 146 84c73 0 129 -33 157 -91c35 53 84 91 170 91c112 0 181 -72 181 -198
z" />
    <glyph glyph-name="uni33A6" unicode="&#x33a6;" horiz-adv-x="910" 
d="M757 727l-35 34c16 20 42 34 76 34c52 0 78 -24 78 -57v-5c0 -17 -7 -38 -31 -48c30 -8 41 -30 41 -52v-4c0 -37 -25 -67 -88 -67c-33 0 -59 10 -80 27l28 46c16 -14 32 -19 44 -19c19 0 28 7 28 19v4c0 12 -7 19 -25 19h-20v47h18c14 0 19 7 19 18v3c0 8 -6 16 -22 16
c-11 0 -21 -4 -31 -15zM397 521h86v-39c17 36 50 49 86 49c44 0 77 -20 92 -60c17 33 48 60 98 60c73 0 120 -47 120 -143v-414h-94v394c0 59 -11 85 -46 85c-37 0 -54 -37 -54 -88v-391h-94v399c0 58 -14 80 -45 80c-34 0 -55 -29 -55 -87v-392h-94v547zM387 521l-161 -221
l160 -326h-105l-114 245l-34 -47v-198h-97v721h97v-401l149 227h105z" />
    <glyph glyph-name="uni3399" unicode="&#x3399;" horiz-adv-x="910" 
d="M361 521h86v-39c17 36 53 49 89 49c44 0 80 -20 95 -60c17 33 51 60 101 60c73 0 123 -47 123 -143v-414h-94v394c0 59 -14 85 -49 85c-37 0 -57 -37 -57 -88v-391h-94v399c0 58 -17 80 -48 80c-34 0 -58 -29 -58 -87v-392h-94v547zM357 691l-15 -79c-20 7 -45 12 -72 12
c-39 0 -66 -17 -66 -81v-22h138v-81h-138v-466h-97v466h-84v81h84v23c0 122 64 162 158 162c38 0 70 -7 92 -15z" />
    <glyph glyph-name="uni339A" unicode="&#x339a;" horiz-adv-x="910" 
d="M397 521h86v-40c17 36 50 50 86 50c44 0 77 -20 92 -60c17 33 48 60 98 60c73 0 120 -47 120 -143v-414h-94v394c0 59 -11 85 -46 85c-37 0 -54 -37 -54 -88v-391h-94v399c0 58 -14 80 -45 80c-34 0 -55 -29 -55 -87v-392h-94v547zM357 353v-379h-94v361
c0 76 -9 110 -55 110c-32 0 -64 -22 -64 -109v-362h-94v547h86v-53h1c21 52 68 63 97 63c93 0 123 -64 123 -178z" />
    <glyph glyph-name="uni339B" unicode="&#x339b;" horiz-adv-x="910" 
d="M140 -240h-93v761h94v-378c0 -64 17 -98 59 -98c46 0 60 44 60 104v372h94v-547h-93v27c-13 -21 -32 -35 -59 -35c-26 0 -49 11 -62 36v-242zM397 521h86v-40c17 36 50 50 86 50c44 0 77 -20 92 -60c17 33 48 60 98 60c73 0 120 -47 120 -143v-414h-94v394
c0 59 -11 85 -46 85c-37 0 -54 -37 -54 -88v-391h-94v399c0 58 -14 80 -45 80c-34 0 -55 -29 -55 -87v-392h-94v547z" />
    <glyph glyph-name="uni339C" unicode="&#x339c;" horiz-adv-x="910" 
d="M31 521h84v-41c17 39 45 51 76 51c36 0 63 -22 71 -51c12 30 40 51 78 51c59 0 92 -42 92 -142v-415h-93v396c0 52 -4 80 -28 80c-23 0 -34 -30 -34 -78v-398h-93v408c0 53 -6 68 -27 68c-24 0 -33 -32 -33 -84v-392h-93v547zM477 521h84v-41c17 39 45 51 76 51
c36 0 63 -22 71 -51c12 30 40 51 78 51c59 0 92 -42 92 -142v-415h-93v396c0 52 -4 80 -28 80c-23 0 -34 -30 -34 -78v-398h-93v408c0 53 -6 68 -27 68c-24 0 -33 -32 -33 -84v-392h-93v547z" />
    <glyph glyph-name="uni339D" unicode="&#x339d;" horiz-adv-x="910" 
d="M224 531c67 0 111 -26 143 -60l-52 -63c-26 28 -54 39 -91 39c-55 0 -96 -37 -96 -157v-76c0 -118 27 -163 96 -163c43 0 68 12 103 44l53 -66c-28 -29 -75 -63 -158 -63c-152 0 -189 90 -189 247v76c0 157 59 242 191 242zM397 521h86v-39c17 36 50 49 86 49
c44 0 77 -20 92 -60c17 33 48 60 98 60c73 0 120 -47 120 -143v-414h-94v394c0 59 -11 85 -46 85c-37 0 -54 -37 -54 -88v-391h-94v399c0 58 -14 80 -45 80c-34 0 -55 -29 -55 -87v-392h-94v547z" />
    <glyph glyph-name="uni339E" unicode="&#x339e;" horiz-adv-x="910" 
d="M397 521h86v-39c17 36 50 49 86 49c44 0 77 -20 92 -60c17 33 48 60 98 60c73 0 120 -47 120 -143v-414h-94v394c0 59 -11 85 -46 85c-37 0 -54 -37 -54 -88v-391h-94v399c0 58 -14 80 -45 80c-34 0 -55 -29 -55 -87v-392h-94v547zM387 521l-161 -221l160 -326h-105
l-114 245l-34 -47v-198h-97v721h97v-401l149 227h105z" />
    <glyph glyph-name="uni339F" unicode="&#x339f;" horiz-adv-x="910" 
d="M724 607l60 73c21 26 24 32 24 42v4c0 9 -7 16 -20 16c-12 0 -23 -5 -34 -19l-34 34c11 15 34 38 75 38c61 0 79 -34 79 -63v-5c-1 -24 -17 -45 -35 -66l-40 -48h81v-47h-156v41zM31 521h84v-41c17 39 45 51 76 51c36 0 63 -22 71 -51c12 30 40 51 78 51
c59 0 92 -42 92 -142v-415h-93v396c0 52 -4 80 -28 80c-23 0 -34 -30 -34 -78v-398h-93v408c0 53 -6 68 -27 68c-24 0 -33 -32 -33 -84v-392h-93v547zM477 521h84v-41c17 39 45 51 76 51c36 0 63 -22 71 -51c12 30 40 51 78 51c59 0 92 -42 92 -142v-415h-93v396
c0 52 -4 80 -28 80c-23 0 -34 -30 -34 -78v-398h-93v408c0 53 -6 68 -27 68c-24 0 -33 -32 -33 -84v-392h-93v547z" />
    <glyph glyph-name="uni33A0" unicode="&#x33a0;" horiz-adv-x="910" 
d="M724 607l60 73c21 26 24 32 24 42v4c0 9 -7 16 -20 16c-12 0 -23 -5 -34 -19l-34 34c11 15 34 38 75 38c61 0 79 -34 79 -63v-5c-1 -24 -17 -45 -35 -66l-40 -48h81v-47h-156v41zM224 531c67 0 111 -26 143 -60l-52 -63c-26 28 -54 39 -91 39c-55 0 -96 -37 -96 -157v-76
c0 -118 27 -163 96 -163c43 0 68 12 103 44l53 -66c-28 -29 -75 -63 -158 -63c-152 0 -189 90 -189 247v76c0 157 59 242 191 242zM397 521h86v-39c17 36 50 49 86 49c44 0 77 -20 92 -60c17 33 48 60 98 60c73 0 120 -47 120 -143v-414h-94v394c0 59 -11 85 -46 85
c-37 0 -54 -37 -54 -88v-391h-94v399c0 58 -14 80 -45 80c-34 0 -55 -29 -55 -87v-392h-94v547z" />
    <glyph glyph-name="uni33A1" unicode="&#x33a1;" horiz-adv-x="910" 
d="M724 607l60 73c21 26 24 32 24 42v4c0 9 -7 16 -20 16c-12 0 -23 -5 -34 -19l-34 34c11 15 34 38 75 38c61 0 79 -34 79 -63v-5c-1 -24 -17 -45 -35 -66l-40 -48h81v-47h-156v41zM851 333v-359h-97v328c0 95 -34 141 -103 141c-61 0 -127 -39 -127 -128v-341h-97v328
c0 95 -34 141 -103 141c-60 0 -127 -37 -127 -123v-346h-97v547h96v-74h1c21 48 70 84 146 84c73 0 129 -33 157 -91c35 53 84 91 170 91c112 0 181 -72 181 -198z" />
    <glyph glyph-name="uni33A2" unicode="&#x33a2;" horiz-adv-x="910" 
d="M724 607l60 73c21 26 24 32 24 42v4c0 9 -7 16 -20 16c-12 0 -23 -5 -34 -19l-34 34c11 15 34 38 75 38c61 0 79 -34 79 -63v-5c-1 -24 -17 -45 -35 -66l-40 -48h81v-47h-156v41zM397 521h86v-39c17 36 50 49 86 49c44 0 77 -20 92 -60c17 33 48 60 98 60
c73 0 120 -47 120 -143v-414h-94v394c0 59 -11 85 -46 85c-37 0 -54 -37 -54 -88v-391h-94v399c0 58 -14 80 -45 80c-34 0 -55 -29 -55 -87v-392h-94v547zM387 521l-161 -221l160 -326h-105l-114 245l-34 -47v-198h-97v721h97v-401l149 227h105z" />
    <glyph glyph-name="uni33CA" unicode="&#x33ca;" horiz-adv-x="910" 
d="M546 398l-48 72c42 36 95 61 157 61c122 0 161 -69 161 -181v-376h-93v37c-20 -26 -54 -45 -100 -45c-111 0 -145 70 -145 160v22c0 90 42 151 175 151h69v48c0 74 -17 100 -67 100c-34 0 -68 -15 -109 -49zM447 341v-367h-97v345c0 92 -21 126 -77 126
c-59 0 -95 -46 -95 -132v-339h-97v721h97v-225c20 32 59 61 121 61c103 0 148 -70 148 -190zM722 148v76h-68c-70 0 -79 -32 -79 -79v-16c0 -61 17 -85 55 -85c53 0 92 44 92 104z" />
    <glyph glyph-name="uni338D" unicode="&#x338d;" horiz-adv-x="910" 
d="M863 521v-540c0 -153 -50 -230 -203 -230c-59 0 -108 21 -153 56l44 76c36 -27 68 -44 111 -44c74 0 105 45 105 142v56c-17 -38 -62 -61 -113 -61c-138 0 -178 94 -178 233v88c0 142 60 234 175 234c58 0 96 -20 116 -57v47h96zM437 -26h-95v43c-14 -25 -38 -51 -89 -51
c-50 0 -76 31 -87 49v-255h-96v761h96v-347c0 -65 19 -121 86 -121c57 0 89 48 89 148v320h96v-547zM768 199v130c0 57 -27 116 -100 116c-78 0 -97 -60 -97 -163v-57c0 -104 16 -164 97 -164c70 0 100 53 100 138z" />
    <glyph glyph-name="uni338E" unicode="&#x338e;" horiz-adv-x="910" 
d="M874 521v-562c0 -153 -58 -208 -160 -208c-59 0 -107 21 -152 56l51 76c35 -30 54 -44 97 -44c45 0 70 25 70 122v56c-15 -26 -49 -41 -87 -41c-112 0 -138 94 -138 233v88c0 142 39 234 145 234c54 0 76 -26 89 -53v43h85zM51 521h86v-39c17 36 48 49 84 49
c44 0 75 -20 90 -60c17 33 46 60 96 60c73 0 118 -47 118 -143v-414h-94v394c0 59 -9 85 -44 85c-37 0 -52 -37 -52 -88v-391h-94v399c0 58 -12 80 -43 80c-34 0 -53 -29 -53 -87v-392h-94v547zM781 197v135c0 57 -6 116 -64 116c-63 0 -69 -60 -69 -163v-61
c0 -115 9 -164 68 -164c47 0 65 52 65 137z" />
    <glyph glyph-name="uni338F" unicode="&#x338f;" horiz-adv-x="910" 
d="M863 521v-540c0 -153 -50 -230 -203 -230c-59 0 -108 21 -153 56l44 76c36 -27 68 -44 111 -44c74 0 105 45 105 142v56c-17 -38 -62 -61 -113 -61c-138 0 -178 94 -178 233v88c0 142 60 234 175 234c58 0 96 -20 116 -57v47h96zM492 521l-190 -210l200 -337h-109
l-152 269l-61 -68v-201h-97v721h97v-403l200 229h112zM768 199v130c0 57 -27 116 -100 116c-78 0 -97 -60 -97 -163v-57c0 -104 16 -164 97 -164c70 0 100 53 100 138z" />
    <glyph glyph-name="uni33CF" unicode="&#x33cf;" horiz-adv-x="910" 
d="M514 521l-188 -214l198 -333h-109l-149 264l-54 -61v-203h-97v721h97v-401l190 227h112zM610 127v311h-90v83h90v138h97v-138h130v-83h-130v-311c0 -67 26 -78 67 -78c20 0 38 4 61 13l20 -75c-22 -11 -61 -21 -96 -21c-104 0 -149 51 -149 161z" />
    <glyph glyph-name="uni3388" unicode="&#x3388;" horiz-adv-x="910" 
d="M445 398l-48 72c42 36 95 61 157 61c122 0 161 -69 161 -181v-376h-93v37c-20 -26 -54 -45 -100 -45c-111 0 -145 70 -145 160v22c0 90 42 151 175 151h69v48c0 74 -17 100 -67 100c-34 0 -68 -15 -109 -49zM621 148v76h-68c-70 0 -79 -32 -79 -79v-16
c0 -61 17 -85 55 -85c53 0 92 44 92 104zM772 695h97v-721h-97v721zM224 531c67 0 111 -26 143 -60l-52 -63c-26 28 -53 39 -90 39c-55 0 -97 -39 -97 -159v-72c0 -118 27 -165 96 -165c43 0 68 12 103 44l53 -66c-28 -29 -75 -63 -158 -63c-152 0 -189 90 -189 247v76
c0 157 62 242 191 242z" />
    <glyph glyph-name="uni3389" unicode="&#x3389;" horiz-adv-x="910" 
d="M583 410l-49 61c35 38 74 60 133 60c96 0 123 -69 123 -165v-392h-80v36c-19 -29 -40 -44 -86 -44c-80 0 -103 73 -103 150v36c0 90 48 147 142 147h43v58c0 74 -16 90 -49 90c-27 0 -49 -12 -74 -37zM285 521l-107 -203l96 -344h-88l-61 244l-29 -56v-188h-86v721h86
v-402l97 228h92zM401 531c67 0 98 -30 123 -60l-56 -55c-19 24 -33 37 -64 37c-42 0 -62 -43 -62 -163v-76c0 -118 7 -167 65 -167c22 0 46 5 68 37l53 -52c-24 -36 -58 -66 -121 -66c-147 0 -150 114 -150 247v84c0 157 41 234 144 234zM813 695h86v-721h-86v721zM706 148
v76h-29c-50 0 -69 -28 -69 -75v-30c0 -61 16 -75 39 -75c44 0 59 44 59 104z" />
    <glyph glyph-name="uni33C8" unicode="&#x33c8;" horiz-adv-x="910" 
d="M444 -26h-94v51c-23 -37 -56 -59 -115 -59c-128 0 -191 86 -191 235v98c0 149 70 232 188 232c64 0 103 -23 117 -49v213h95v-721zM139 289v-78c0 -106 35 -166 103 -166c67 0 107 45 107 131v154c0 56 -32 123 -107 123c-73 0 -103 -59 -103 -164zM502 -26v721h163
c132 0 192 -58 192 -176v-21c0 -63 -25 -127 -110 -145c86 -8 137 -64 137 -164v-25c0 -115 -47 -190 -203 -190h-179zM597 312v-256h72c59 0 118 25 118 110v22c0 88 -32 124 -137 124h-53zM642 614h-45v-225h52c55 0 112 20 112 110v18c0 85 -54 97 -119 97z" />
    <glyph glyph-name="uni33A7" unicode="&#x33a7;" horiz-adv-x="910" 
d="M744 46c40 0 57 35 57 74v10c0 40 -10 56 -57 81c-88 46 -109 73 -109 158v14c0 79 47 148 136 148c44 0 78 -8 116 -41l-42 -60c-18 13 -28 22 -62 22c-40 0 -58 -31 -58 -70v-11c0 -41 20 -62 53 -80c79 -43 113 -70 113 -158v-15c0 -85 -49 -152 -142 -152
c-52 0 -92 12 -133 48l48 67c27 -24 46 -35 80 -35zM31 521h84v-41c17 39 45 51 76 51c36 0 63 -22 71 -51c12 30 40 51 78 51c59 0 92 -42 92 -142v-415h-93v396c0 52 -4 80 -28 80c-23 0 -34 -30 -34 -78v-398h-93v408c0 53 -6 68 -27 68c-24 0 -33 -32 -33 -84v-392h-93
v547zM624 759h71l-202 -884h-70z" />
    <glyph glyph-name="uni33A8" unicode="&#x33a8;" horiz-adv-x="910" 
d="M724 607l60 73c21 26 24 32 24 42v4c0 9 -7 16 -20 16c-12 0 -23 -5 -34 -19l-34 34c11 15 34 38 75 38c61 0 79 -34 79 -63v-5c-1 -24 -17 -45 -35 -66l-40 -48h81v-47h-156v41zM744 46c40 0 57 35 57 74v10c0 40 -10 56 -57 81c-88 46 -109 73 -109 158v14
c0 79 47 148 136 148c44 0 78 -8 116 -41l-42 -60c-18 13 -28 22 -62 22c-40 0 -58 -31 -58 -70v-11c0 -41 20 -62 53 -80c79 -43 113 -70 113 -158v-15c0 -85 -49 -152 -142 -152c-52 0 -92 12 -133 48l48 67c27 -24 46 -35 80 -35zM31 521h84v-41c17 39 45 51 76 51
c36 0 63 -22 71 -51c12 30 40 51 78 51c59 0 92 -42 92 -142v-415h-93v396c0 52 -4 80 -28 80c-23 0 -34 -30 -34 -78v-398h-93v408c0 53 -6 68 -27 68c-24 0 -33 -32 -33 -84v-392h-93v547zM624 759h71l-202 -884h-70z" />
    <glyph glyph-name="uni33B0" unicode="&#x33b0;" horiz-adv-x="910" 
d="M173 521v-58c28 46 71 68 132 68c132 0 176 -95 176 -235v-94c0 -151 -55 -236 -186 -236c-61 0 -97 25 -119 50v-256h-95v761h92zM686 48c61 0 85 33 85 72v10c0 46 -13 59 -100 84c-110 31 -153 66 -153 155v14c0 79 53 148 173 148c71 0 117 -12 162 -46l-41 -67
c-34 23 -73 32 -116 32c-55 0 -81 -29 -81 -68v-11c0 -41 15 -55 87 -75c139 -40 166 -75 166 -163v-15c0 -89 -59 -152 -180 -152c-75 0 -137 21 -185 58l45 74c44 -32 97 -50 138 -50zM175 307v-138c0 -57 27 -118 109 -118s103 61 103 164v67c0 104 -22 164 -103 164
c-76 0 -109 -54 -109 -139z" />
    <glyph glyph-name="uni33B1" unicode="&#x33b1;" horiz-adv-x="910" 
d="M453 341v-367h-97v345c0 92 -21 126 -77 126c-59 0 -95 -46 -95 -132v-339h-97v547h95v-51c20 32 61 61 123 61c103 0 148 -70 148 -190zM677 48c61 0 85 33 85 72v10c0 46 -13 59 -100 84c-110 31 -153 66 -153 155v14c0 79 53 148 173 148c71 0 117 -12 162 -46
l-41 -67c-34 23 -73 32 -116 32c-55 0 -81 -29 -81 -68v-11c0 -41 15 -55 87 -75c139 -40 166 -75 166 -163v-15c0 -89 -59 -152 -180 -152c-75 0 -137 21 -185 58l45 74c44 -32 97 -50 138 -50z" />
    <glyph glyph-name="uni33B2" unicode="&#x33b2;" horiz-adv-x="910" 
d="M677 48c61 0 85 33 85 72v10c0 46 -13 59 -100 84c-110 31 -153 66 -153 155v14c0 79 53 148 173 148c71 0 117 -12 162 -46l-41 -67c-34 23 -73 32 -116 32c-55 0 -81 -29 -81 -68v-11c0 -41 15 -55 87 -75c139 -40 166 -75 166 -163v-15c0 -89 -59 -152 -180 -152
c-75 0 -137 21 -185 58l45 74c44 -32 97 -50 138 -50zM448 -26h-95v43c-14 -25 -38 -51 -89 -51c-50 0 -76 31 -87 49v-255h-96v761h96v-347c0 -65 19 -121 86 -121c57 0 89 48 89 148v320h96v-547z" />
    <glyph glyph-name="uni33B3" unicode="&#x33b3;" horiz-adv-x="910" 
d="M720 45c58 0 80 33 80 72v10c0 36 -1 52 -88 82c-110 38 -148 71 -148 160v14c0 79 49 148 164 148c65 0 115 -15 159 -50l-39 -64c-34 23 -66 36 -109 36c-56 0 -80 -32 -80 -71v-10c0 -41 12 -56 84 -81c137 -47 152 -75 152 -161v-15c0 -89 -51 -149 -172 -149
c-71 0 -125 20 -173 57l43 72c44 -32 86 -50 127 -50zM34 521h86v-39c17 36 50 49 86 49c44 0 77 -20 92 -60c17 33 48 60 98 60c73 0 120 -47 120 -143v-414h-94v394c0 59 -11 85 -46 85c-37 0 -54 -37 -54 -88v-391h-94v399c0 58 -14 80 -45 80c-34 0 -55 -29 -55 -87
v-392h-94v547z" />
    <glyph glyph-name="uni33B4" unicode="&#x33b4;" horiz-adv-x="910" 
d="M150 521v-58c28 46 71 68 132 68c132 0 176 -95 176 -235v-94c0 -151 -55 -236 -186 -236c-61 0 -97 25 -119 50v-256h-95v761h92zM413 695h101l144 -596l140 596h98l-187 -721h-104zM152 307v-138c0 -57 27 -118 109 -118s103 61 103 164v67c0 104 -22 164 -103 164
c-76 0 -109 -54 -109 -139z" />
    <glyph glyph-name="uni33B5" unicode="&#x33b5;" horiz-adv-x="910" 
d="M413 695h101l144 -596l140 596h98l-187 -721h-104zM443 341v-367h-97v345c0 92 -21 126 -77 126c-59 0 -95 -46 -95 -132v-339h-97v547h95v-51c20 32 61 61 123 61c103 0 148 -70 148 -190z" />
    <glyph glyph-name="uni33B6" unicode="&#x33b6;" horiz-adv-x="910" 
d="M413 695h101l144 -596l140 596h98l-187 -721h-104zM430 -26h-95v43c-14 -25 -38 -51 -89 -51c-50 0 -76 31 -87 49v-255h-96v761h96v-347c0 -65 19 -121 86 -121c57 0 89 48 89 148v320h96v-547z" />
    <glyph glyph-name="uni33B7" unicode="&#x33b7;" horiz-adv-x="910" 
d="M515 695h97l96 -596l92 596h94l-135 -721h-104zM45 521h86v-39c17 36 50 49 86 49c44 0 77 -20 92 -60c17 33 48 60 98 60c73 0 120 -47 120 -143v-414h-94v394c0 59 -11 85 -46 85c-37 0 -54 -37 -54 -88v-391h-94v399c0 58 -14 80 -45 80c-34 0 -55 -29 -55 -87v-392
h-94v547z" />
    <glyph glyph-name="uni33B8" unicode="&#x33b8;" horiz-adv-x="910" 
d="M451 521l-181 -221l194 -326h-109l-144 254l-43 -53v-201h-97v721h97v-399l173 225h110zM415 695h101l144 -596l140 596h98l-187 -721h-104z" />
    <glyph glyph-name="uni33B9" unicode="&#x33b9;" horiz-adv-x="910" 
d="M520 695h92l96 -596l92 596h89l-130 -721h-104zM234 94l-88 430c-7 32 -10 54 -19 100v-650h-82v721h136l100 -496l95 496h135v-721h-83v650c-6 -52 -9 -68 -16 -100l-90 -430h-88z" />
    <glyph glyph-name="uni3380" unicode="&#x3380;" horiz-adv-x="910" 
d="M137 521v-58c28 46 71 68 132 68c132 0 176 -95 176 -235v-94c0 -151 -55 -236 -186 -236c-61 0 -97 25 -119 50v-256h-95v761h92zM705 695l190 -721h-104l-48 208h-171l-49 -208h-101l186 721h97zM139 307v-138c0 -57 25 -118 109 -118c82 0 103 61 103 164v67
c0 104 -22 164 -103 164c-79 0 -109 -54 -109 -139zM634 440l-43 -178h133l-41 178c-14 62 -18 87 -26 154c-4 -66 -8 -92 -23 -154z" />
    <glyph glyph-name="uni3381" unicode="&#x3381;" horiz-adv-x="910" 
d="M712 695l190 -721h-104l-48 208h-171l-49 -208h-101l186 721h97zM417 341v-367h-97v345c0 92 -21 126 -77 126c-59 0 -95 -46 -95 -132v-339h-97v547h95v-51c20 32 61 61 123 61c103 0 148 -70 148 -190zM641 440l-43 -178h133l-41 178c-14 62 -18 87 -26 154
c-4 -66 -8 -92 -23 -154z" />
    <glyph glyph-name="uni3382" unicode="&#x3382;" horiz-adv-x="910" 
d="M712 695l190 -721h-104l-48 208h-171l-49 -208h-101l186 721h97zM420 -26h-95v43c-14 -25 -38 -51 -89 -51c-50 0 -76 31 -87 49v-255h-96v761h96v-347c0 -65 19 -121 86 -121c57 0 89 48 89 148v320h96v-547zM641 440l-43 -178h133l-41 178c-14 62 -18 87 -26 154
c-4 -66 -8 -92 -23 -154z" />
    <glyph glyph-name="uni3383" unicode="&#x3383;" horiz-adv-x="910" 
d="M31 521h84v-41c17 39 45 51 76 51c36 0 63 -22 71 -51c12 30 40 51 78 51c59 0 92 -42 92 -142v-415h-93v396c0 52 -4 80 -28 80c-23 0 -34 -30 -34 -78v-398h-93v408c0 53 -6 68 -27 68c-24 0 -33 -32 -33 -84v-392h-93v547zM712 695l180 -721h-104l-44 208h-159
l-45 -208h-101l176 721h97zM641 440l-39 -178h125l-37 178c-13 60 -18 87 -26 154c-4 -66 -10 -94 -23 -154z" />
    <glyph glyph-name="uni3384" unicode="&#x3384;" horiz-adv-x="910" 
d="M439 521l-181 -221l178 -299l179 694h97l190 -721h-104l-48 208h-171l-49 -208h-187l-144 254l-43 -53v-201h-97v721h97v-399l173 225h110zM641 440l-43 -178h133l-41 178c-14 62 -18 87 -26 154c-4 -66 -8 -92 -23 -154z" />
    <glyph glyph-name="uni33BA" unicode="&#x33ba;" horiz-adv-x="910" 
d="M117 521v-53c23 40 60 63 115 63c123 0 152 -95 152 -235v-94c0 -151 -33 -236 -162 -236c-48 0 -84 25 -102 50v-256h-91v761h88zM451 -26l-94 721h88l61 -589h1l70 589h106l69 -589h1l65 589h86l-101 -721h-104l-69 594l-73 -594h-106zM119 307v-138
c0 -57 29 -118 92 -118s83 40 83 164v67c0 118 -14 164 -83 164c-57 0 -92 -54 -92 -139z" />
    <glyph glyph-name="uni33BB" unicode="&#x33bb;" horiz-adv-x="910" 
d="M451 -26l-94 721h88l61 -589h1l70 589h106l69 -589h1l65 589h86l-101 -721h-104l-69 594l-73 -594h-106zM355 353v-379h-92v361c0 76 -11 110 -57 110c-32 0 -66 -22 -66 -109v-362h-92v547h84v-53h1c21 52 70 63 99 63c93 0 123 -64 123 -178z" />
    <glyph glyph-name="uni33BC" unicode="&#x33bc;" horiz-adv-x="910" 
d="M451 -26l-94 721h88l61 -589h1l70 589h106l69 -589h1l65 589h86l-101 -721h-104l-69 594l-73 -594h-106zM140 -240h-93v761h94v-378c0 -64 17 -98 59 -98c46 0 60 44 60 104v372h94v-547h-93v27c-13 -21 -32 -35 -59 -35c-26 0 -49 11 -62 36v-242z" />
    <glyph glyph-name="uni33BD" unicode="&#x33bd;" horiz-adv-x="910" 
d="M483 -26l-80 721h88l47 -589h1l60 589h106l59 -589h1l51 589h86l-87 -721h-104l-59 594l-63 -594h-106zM16 521h82v-41c17 39 45 51 76 51c36 0 63 -22 71 -51c12 30 40 51 78 51c59 0 90 -42 90 -142v-415h-91v396c0 52 -4 80 -28 80c-23 0 -35 -27 -35 -75v-401h-91
v408c0 53 -7 68 -28 68c-22 0 -33 -32 -33 -84v-392h-91v547z" />
    <glyph glyph-name="uni33BE" unicode="&#x33be;" horiz-adv-x="910" 
d="M479 -26l-80 721h88l47 -589h1l60 589h106l59 -589h1l51 589h86l-87 -721h-104l-59 594l-63 -594h-106zM408 521l-177 -226l180 -321h-105l-134 245l-37 -47v-198h-96v721h96v-401l168 227h105z" />
    <glyph glyph-name="uni33BF" unicode="&#x33bf;" horiz-adv-x="910" 
d="M483 -26l-80 721h88l47 -589h1l60 589h106l59 -589h1l51 589h86l-87 -721h-104l-59 594l-63 -594h-106zM166 94l-50 385c-4 33 -8 76 -13 139v-644h-72v721h125l58 -494l55 494h124v-721h-72v644c-4 -63 -8 -108 -12 -140l-53 -384h-90z" />
    <glyph glyph-name="uni3390" unicode="&#x3390;" horiz-adv-x="910" 
d="M378 695h97v-721h-97v332h-192v-332h-97v721h97v-303h192v303zM858 521v-74l-231 -390h246v-83h-363v69l235 394h-215v84h328z" />
    <glyph glyph-name="uni3391" unicode="&#x3391;" horiz-adv-x="910" 
d="M542 695h90v-721h-90v335h-106v-335h-90v721h90v-303h106v303zM332 521l-132 -222l128 -325h-95l-89 231l-26 -43v-188h-90v721h90v-395l119 221h95zM888 521v-73l-138 -393h138v-81h-238v67l139 397h-129v83h228z" />
    <glyph glyph-name="uni3392" unicode="&#x3392;" horiz-adv-x="910" 
d="M154 94l-46 385c-4 33 -8 76 -13 139v-644h-72v721h126l49 -494l40 494h124v-721h-72v644c-4 -63 -6 -108 -9 -140l-37 -384h-90zM569 695h84v-721h-84v336h-75v-336h-84v721h84v-304h75v304zM899 521v-69l-140 -401h140v-77h-233v63l141 405h-131v79h223z" />
    <glyph glyph-name="uni3393" unicode="&#x3393;" horiz-adv-x="910" 
d="M559 695h90v-721h-90v335h-99v-335h-90v721h90v-303h99v303zM344 365v-346c-22 -33 -65 -56 -139 -56c-128 0 -182 102 -182 314v114c0 210 66 315 188 315c63 0 95 -13 139 -58l-56 -59c-24 28 -50 37 -78 37c-73 0 -103 -83 -103 -250v-87c0 -167 30 -242 94 -242
c23 0 36 5 47 15v219h-68v84h158zM895 521v-73l-130 -393h130v-81h-228v67l131 397h-121v83h218z" />
    <glyph glyph-name="uni3394" unicode="&#x3394;" horiz-adv-x="910" 
d="M542 695h90v-721h-90v335h-106v-335h-90v721h90v-303h106v303zM216 -26h-90v639h-116v82h323v-82h-117v-639zM888 521v-73l-138 -393h138v-81h-238v67l139 397h-129v83h228z" />
    <glyph glyph-name="uni2126" unicode="&#x2126;" horiz-adv-x="910" 
d="M455 617c-112 0 -207 -66 -207 -235v-88c0 -133 58 -208 132 -232v-88h-298v86h162c-48 41 -94 110 -94 223v109c0 210 134 314 305 314s305 -104 305 -314v-109c0 -113 -46 -182 -94 -223h162v-86h-298v88c74 24 132 99 132 232v88c0 169 -95 235 -207 235z" />
    <glyph glyph-name="uni33C0" unicode="&#x33c0;" horiz-adv-x="910" 
d="M389 521l-166 -222l141 -250h115c-48 41 -68 131 -68 234v117c0 210 82 306 222 306c141 0 222 -96 222 -306v-117c0 -103 -21 -193 -69 -234h110v-75h-228v77c74 24 94 110 94 243v99c0 169 -44 229 -129 229s-129 -60 -129 -229v-99c0 -133 20 -219 94 -243v-77h-297
l-136 247l-36 -49v-198h-97v721h97v-401l155 227h105z" />
    <glyph glyph-name="uni33C1" unicode="&#x33c1;" horiz-adv-x="910" 
d="M173 94l-61 421c-5 33 -7 54 -13 100v-641h-74v721h126l69 -491l64 491h124v-647h114c-48 41 -68 132 -68 235v117c0 210 72 306 209 306c135 0 209 -96 209 -306v-117c0 -103 -21 -194 -69 -235h100v-74h-215v76c74 24 94 111 94 244v102c0 169 -40 229 -119 229
s-119 -60 -119 -229v-102c0 -133 20 -220 94 -244v-76h-304v641c-4 -52 -6 -68 -11 -100l-62 -421h-88z" />
    <glyph glyph-name="uni338A" unicode="&#x338a;" horiz-adv-x="910" 
d="M161 521v-58c28 46 71 68 132 68c132 0 176 -95 176 -235v-94c0 -151 -55 -236 -186 -236c-61 0 -97 25 -119 50v-256h-95v761h92zM529 695h362v-85h-263v-241h242v-85h-242v-310h-99v721zM163 307v-138c0 -57 27 -118 109 -118s103 61 103 164v67
c0 104 -22 164 -103 164c-76 0 -109 -54 -109 -139z" />
    <glyph glyph-name="uni338B" unicode="&#x338b;" horiz-adv-x="910" 
d="M443 341v-367h-97v345c0 92 -21 126 -77 126c-59 0 -95 -46 -95 -132v-339h-97v547h95v-51c20 32 61 61 123 61c103 0 148 -70 148 -190zM529 695h362v-85h-263v-241h242v-85h-242v-310h-99v721z" />
    <glyph glyph-name="uni338C" unicode="&#x338c;" horiz-adv-x="910" 
d="M529 695h362v-85h-263v-241h242v-85h-242v-310h-99v721zM445 -26h-95v43c-14 -25 -38 -51 -89 -51c-50 0 -76 31 -87 49v-255h-96v761h96v-347c0 -65 19 -121 86 -121c57 0 89 48 89 148v320h96v-547z" />
    <glyph glyph-name="uni33D6" unicode="&#x33d6;" horiz-adv-x="910" 
d="M557 287v-77c0 -100 9 -163 55 -163c48 0 55 63 55 164v76c0 100 -7 163 -55 163c-46 0 -55 -63 -55 -163zM796 695h86v-721h-86v721zM27 521h84v-41c17 39 45 51 76 51c36 0 63 -22 71 -51c12 30 40 51 78 51c59 0 92 -42 92 -142v-415h-93v396c0 52 -4 80 -28 80
c-23 0 -34 -30 -34 -78v-398h-93v408c0 53 -6 68 -27 68c-24 0 -33 -32 -33 -84v-392h-93v547zM463 206v85c0 156 38 240 149 240s149 -85 149 -240v-85c0 -155 -38 -240 -149 -240s-149 84 -149 240z" />
    <glyph glyph-name="uni33C5" unicode="&#x33c5;" horiz-adv-x="910" 
d="M842 -26h-94v51c-23 -37 -63 -59 -122 -59c-134 0 -194 86 -194 235v98c0 149 67 232 191 232c64 0 110 -23 124 -49v213h95v-721zM527 289v-78c0 -106 34 -166 108 -166c67 0 112 45 112 131v154c0 56 -37 123 -112 123c-79 0 -108 -59 -108 -164zM267 531
c67 0 117 -26 153 -60l-46 -70c-34 30 -60 46 -110 46c-72 0 -112 -48 -112 -160v-71c0 -118 39 -165 111 -165c51 0 80 13 122 47l49 -69c-31 -29 -80 -63 -172 -63c-151 0 -205 92 -205 249v71c0 157 67 245 210 245z" />
    <glyph glyph-name="uni33AD" unicode="&#x33ad;" horiz-adv-x="910" 
d="M869 -34h-85v51c-16 -28 -51 -51 -89 -51c-109 0 -122 94 -122 233v98c0 142 26 234 129 234c54 0 78 -26 91 -53v249h76v-761zM335 410l-49 61c35 38 74 60 133 60c96 0 123 -69 123 -165v-392h-80v36c-19 -29 -40 -44 -86 -44c-80 0 -103 73 -103 150v36
c0 90 48 147 142 147h43v58c0 74 -16 90 -49 90c-27 0 -49 -12 -74 -37zM293 523l-27 -86c-19 8 -28 10 -45 10c-68 0 -95 -78 -95 -169v-304h-84v547h81v-82h1c15 53 55 92 110 92c25 0 37 -1 59 -8zM785 197v135c0 57 -13 116 -63 116c-54 0 -65 -60 -65 -163v-71
c0 -115 16 -164 64 -164c47 0 64 62 64 147zM458 148v76h-29c-50 0 -69 -28 -69 -75v-30c0 -61 16 -75 39 -75c44 0 59 44 59 104z" />
    <glyph glyph-name="uni33AE" unicode="&#x33ae;" horiz-adv-x="910" 
d="M185 521l-6 -29c21 25 48 39 74 39c52 0 75 -51 75 -147v-409h-60v36c-7 -32 -25 -45 -47 -45c-58 0 -73 74 -73 151v36c0 90 39 145 98 145h15v81c0 62 -5 75 -22 75c-13 0 -27 -12 -45 -37l-22 40l-4 -23c-10 8 -18 10 -28 10c-42 0 -49 -78 -49 -168v-302h-70v547h61
v-82h1c9 61 31 92 65 92c17 0 23 -3 37 -10zM544 -33h-62v48c-9 -27 -27 -49 -51 -49c-65 0 -83 92 -83 231v113c0 141 20 221 81 221c32 0 49 -30 50 -52v248h65v-760zM785 39c33 0 46 33 46 81v10c0 40 -7 53 -41 81c-67 56 -78 80 -78 158v14c0 79 36 148 106 148
c38 0 61 -10 90 -43l-36 -55c-14 16 -22 26 -47 26c-37 0 -45 -38 -45 -77v-11c0 -36 11 -56 36 -80c53 -51 84 -70 84 -158v-15c0 -85 -30 -152 -111 -152c-40 0 -71 12 -102 48l43 54c20 -24 38 -29 55 -29zM703 759h49l-165 -884h-48zM475 198v135c0 56 2 122 -28 122
c-32 0 -39 -48 -39 -150v-102c0 -115 10 -161 34 -161c28 0 33 71 33 156zM261 149v77h-6c-30 0 -42 -28 -42 -75v-37c0 -61 10 -75 24 -75c26 0 24 50 24 110z" />
    <glyph glyph-name="uni33AF" unicode="&#x33af;" horiz-adv-x="910" 
d="M185 521l-6 -29c21 25 48 39 74 39c52 0 75 -51 75 -147v-409h-60v36c-7 -32 -25 -45 -47 -45c-58 0 -73 74 -73 151v36c0 90 39 145 98 145h15v81c0 62 -5 75 -22 75c-13 0 -27 -12 -45 -37l-22 40l-4 -23c-10 8 -18 10 -28 10c-42 0 -49 -78 -49 -168v-302h-70v547h61
v-82h1c9 61 31 92 65 92c17 0 23 -3 37 -10zM544 -33h-62v48c-9 -27 -27 -49 -51 -49c-65 0 -83 92 -83 231v113c0 141 20 221 81 221c32 0 49 -30 50 -52v248h65v-760zM785 39c33 0 46 33 46 81v10c0 40 -7 53 -41 81c-67 56 -78 80 -78 158v14c0 79 36 148 106 148
c38 0 61 -10 90 -43l-36 -55c-14 16 -22 26 -47 26c-37 0 -45 -38 -45 -77v-11c0 -36 11 -56 36 -80c53 -51 84 -70 84 -158v-15c0 -85 -30 -152 -111 -152c-40 0 -71 12 -102 48l43 54c20 -24 38 -29 55 -29zM475 198v135c0 56 2 122 -28 122c-32 0 -39 -48 -39 -150v-102
c0 -115 10 -161 34 -161c28 0 33 71 33 156zM261 149v77h-6c-30 0 -42 -28 -42 -75v-37c0 -61 10 -75 24 -75c26 0 24 50 24 110zM744 607l60 73c21 26 24 32 24 42v4c0 9 -7 16 -20 16c-12 0 -23 -5 -34 -19l-24 24l-163 -872h-48l164 884h38c11 15 34 36 74 36
c61 0 79 -34 79 -63v-5c-1 -24 -17 -45 -35 -66l-40 -48h81v-47h-156v41z" />
    <glyph glyph-name="uni33DB" unicode="&#x33db;" horiz-adv-x="910" 
d="M309 48c61 0 85 33 85 72v10c0 46 -13 59 -100 84c-110 31 -153 66 -153 155v14c0 79 53 148 173 148c71 0 117 -12 162 -46l-41 -67c-34 23 -73 32 -116 32c-55 0 -81 -29 -81 -68v-11c0 -41 15 -55 87 -75c139 -40 166 -75 166 -163v-15c0 -89 -59 -152 -180 -152
c-75 0 -137 21 -185 58l45 74c44 -32 97 -50 138 -50zM823 520l-27 -94c-19 8 -34 13 -56 13c-68 0 -95 -69 -95 -160v-305h-97v547h94v-82h1c15 53 55 92 110 92c29 0 48 -4 70 -11z" />
    <glyph glyph-name="uni33A9" unicode="&#x33a9;" horiz-adv-x="910" 
d="M561 398l-48 72c42 36 95 61 157 61c122 0 161 -69 161 -181v-376h-93v37c-20 -26 -54 -45 -100 -45c-111 0 -145 70 -145 160v22c0 90 42 151 175 151h69v48c0 74 -17 100 -67 100c-34 0 -68 -15 -109 -49zM737 148v76h-68c-70 0 -79 -32 -79 -79v-16
c0 -61 17 -85 55 -85c53 0 92 44 92 104zM104 -26v721h168c163 0 224 -88 224 -206v-21c0 -117 -67 -213 -224 -213h-71v-281h-97zM269 611h-68v-272h58c104 0 140 44 140 131v18c0 82 -37 123 -130 123z" />
    <glyph glyph-name="uni33AA" unicode="&#x33aa;" horiz-adv-x="910" 
d="M328 -26v721h125c150 0 177 -88 177 -206v-21c0 -117 -47 -213 -177 -213h-30v-281h-95zM691 415l-50 60c35 33 66 56 127 56c88 0 125 -58 125 -170v-387h-91v37c-9 -23 -27 -45 -73 -45c-87 0 -108 70 -108 160v22c0 90 38 151 147 151h33v48c0 74 -8 100 -48 100
c-19 0 -39 -8 -62 -32zM315 521l-107 -202l108 -345h-88l-71 247l-31 -59v-188h-86v721h86v-394l97 220h92zM450 611h-27v-272h17c70 0 95 44 95 131v18c0 82 -16 123 -85 123zM801 148v76h-32c-39 0 -51 -32 -51 -79v-16c0 -61 7 -85 32 -85c42 0 51 44 51 104z" />
    <glyph glyph-name="uni33AB" unicode="&#x33ab;" horiz-adv-x="910" 
d="M383 -26v721h123c130 0 152 -87 153 -203c28 24 58 39 108 39c88 0 123 -58 123 -170v-387h-89v37c-9 -23 -27 -45 -73 -45c-87 0 -106 70 -106 160v22c0 90 40 151 145 151h33v48c0 74 -8 100 -48 100c-19 0 -39 -8 -62 -32l-31 37c-3 -110 -39 -197 -153 -197h-30v-281
h-93zM151 94l-46 385c-4 33 -8 76 -13 139v-644h-72v721h126l49 -494l40 494h124v-721h-72v644c-4 -63 -6 -108 -9 -140l-37 -384h-90zM502 611h-26v-272h16c56 0 74 44 74 131v18c0 82 -13 123 -64 123zM800 148v76h-32c-39 0 -51 -32 -51 -79v-16c0 -61 7 -85 32 -85
c42 0 51 44 51 104z" />
    <glyph glyph-name="uni33AC" unicode="&#x33ac;" horiz-adv-x="910" 
d="M380 -26v721h123c132 0 153 -88 153 -206c29 25 61 42 111 42c88 0 123 -58 123 -170v-387h-89v37c-9 -23 -27 -45 -73 -45c-87 0 -106 70 -106 160v22c0 90 40 151 145 151h33v48c0 74 -9 100 -48 100c-19 0 -39 -8 -62 -32l-34 41c-3 -112 -37 -201 -153 -201h-30v-281
h-93zM344 365v-346c-22 -33 -65 -56 -139 -56c-128 0 -182 102 -182 314v114c0 210 66 315 188 315c63 0 95 -13 139 -58l-56 -59c-24 28 -50 37 -78 37c-73 0 -103 -83 -103 -250v-87c0 -167 30 -242 94 -242c23 0 36 5 47 15v219h-68v84h158zM499 611h-26v-272h16
c56 0 74 44 74 131v18c0 82 -13 123 -64 123zM800 148v76h-32c-39 0 -51 -32 -51 -79v-16c0 -61 7 -85 32 -85c42 0 51 44 51 104z" />
    <glyph glyph-name="uni33DD" unicode="&#x33dd;" horiz-adv-x="910" 
d="M599 696v-230c28 46 64 65 122 65c129 0 165 -95 165 -235v-94c0 -151 -45 -236 -176 -236c-58 0 -93 25 -112 50v-42h-91v722h92zM85 -26l-80 721h88l47 -589h1l60 589h106l59 -589h1l51 589h86l-87 -721h-104l-59 594l-63 -594h-106zM601 305v-136
c0 -57 21 -118 98 -118c82 0 95 61 95 164v67c0 104 -14 164 -95 164c-65 0 -98 -56 -98 -141z" />
    <glyph glyph-name="uni33D0" unicode="&#x33d0;" horiz-adv-x="910" 
d="M138 695h97v-721h-97v721zM315 521h86v-39c17 36 50 49 86 49c44 0 77 -20 92 -60c17 33 48 60 98 60c73 0 120 -47 120 -143v-414h-94v394c0 59 -11 85 -46 85c-37 0 -54 -37 -54 -88v-391h-94v399c0 58 -14 80 -45 80c-34 0 -55 -29 -55 -87v-392h-94v547z" />
    <glyph glyph-name="uni33D3" unicode="&#x33d3;" horiz-adv-x="910" 
d="M766 521l-153 -263l160 -284h-108l-117 220l-115 -220h-105l163 284l-154 263h108l111 -202l108 202h102zM187 695h97v-721h-97v721z" />
    <glyph glyph-name="uni33C3" unicode="&#x33c3;" horiz-adv-x="910" 
d="M57 -26v721h163c132 0 192 -58 192 -176v-21c0 -63 -25 -127 -110 -145c86 -8 137 -64 137 -164v-25c0 -115 -47 -190 -203 -190h-179zM152 312v-256h72c59 0 118 25 118 110v22c0 88 -32 124 -137 124h-53zM197 614h-45v-225h52c55 0 112 20 112 110v18
c0 85 -54 97 -119 97zM868 -240h-95v260c-23 -37 -61 -54 -115 -54c-128 0 -189 86 -189 235v98c0 149 70 232 188 232c64 0 105 -24 119 -49v39h92v-761zM564 289v-78c0 -106 35 -166 103 -166c67 0 107 45 107 131v154c0 56 -32 123 -107 123c-73 0 -103 -59 -103 -164z
" />
    <glyph glyph-name="uni33C9" unicode="&#x33c9;" horiz-adv-x="910" 
d="M669 96h4l119 425h102l-256 -773l-83 28l65 190l-161 555h101zM468 370v-348c-35 -29 -86 -59 -171 -59c-177 0 -241 105 -241 317v109c0 210 86 317 233 317c74 0 123 -17 171 -61l-58 -67c-36 33 -71 40 -107 40c-99 0 -143 -75 -143 -242v-83c0 -167 48 -243 149 -243
c29 0 57 6 72 22v213h-93v85h188z" />
    <glyph glyph-name="uni33DC" unicode="&#x33dc;" horiz-adv-x="910" 
d="M687 68h2l108 453h100l-148 -547h-124l-150 547h103zM268 53c97 0 129 54 129 111v10c0 63 -15 87 -133 120c-134 37 -208 77 -208 207v15c0 98 59 190 215 190c83 0 134 -19 195 -63l-47 -77c-53 36 -81 51 -147 51c-80 0 -117 -43 -117 -100v-14c0 -66 32 -87 137 -119
c183 -55 205 -103 205 -203v-12c0 -132 -84 -206 -232 -206c-95 0 -162 28 -222 76l50 81c55 -46 118 -67 175 -67z" />
    <glyph glyph-name="uni33C6" unicode="&#x33c6;" horiz-adv-x="910" 
d="M901 521v-568c0 -153 -51 -202 -144 -202c-41 0 -83 18 -118 53l51 70c29 -31 44 -37 69 -37c27 0 55 19 55 116v63c-13 -25 -37 -39 -64 -39c-104 0 -114 93 -114 232v95c0 142 23 227 117 227c33 0 62 -20 70 -43v33h78zM149 781c64 0 95 -30 115 -60l-54 -52
c-19 24 -30 36 -61 36c-35 0 -58 -25 -58 -140v-43c0 -109 17 -142 61 -142c26 0 47 11 65 38l41 -34l81 375h66l-192 -884h-65l101 470c-23 -25 -54 -44 -100 -44c-125 0 -140 101 -140 220v48c0 157 53 212 140 212zM660 521l-106 -206l95 -341h-83l-61 245l-29 -57v-188
h-81v721h81v-402l97 228h87zM815 197v135c0 57 -2 123 -48 123c-48 0 -45 -60 -45 -163v-75c0 -115 9 -164 46 -164c38 0 47 59 47 144z" />
    <glyph glyph-name="AE" unicode="&#xc6;" horiz-adv-x="971" 
d="M455 695h461v-85h-330v-224h309v-85h-309v-242h337v-85h-436v212h-238l-130 -212h-112zM487 271v323c-16 -46 -32 -73 -60 -118l-126 -205h186z" />
    <glyph glyph-name="Eth" unicode="&#xd0;" horiz-adv-x="700" 
d="M11 312v70h85v313h239c198 0 303 -110 303 -309v-103c0 -199 -100 -309 -303 -309h-239v338h-85zM195 608v-226h191v-70h-191v-250h131c129 0 211 64 211 226v93c0 162 -82 227 -211 227h-131z" />
    <glyph glyph-name="ordfeminine" unicode="&#xaa;" horiz-adv-x="458" 
d="M196 278c-91 0 -146 45 -146 122v23c0 76 48 129 162 129h105v21c0 55 -21 80 -83 80c-50 0 -90 -19 -125 -44l-44 66c43 29 97 56 169 56c98 0 171 -52 171 -139v-308h-85l-1 52c-18 -39 -63 -58 -123 -58zM317 449v29h-104c-56 0 -76 -22 -76 -62v-11
c0 -34 26 -51 67 -51c68 0 113 28 113 95z" />
    <glyph glyph-name="Hbar" unicode="&#x126;" horiz-adv-x="697" 
d="M516 695h99v-139h70v-70h-70v-512h-99v311h-335v-311h-99v512h-70v70h70v139h99v-139h335v139zM181 486v-114h335v114h-335z" />
    <glyph glyph-name="IJ" unicode="&#x132;" horiz-adv-x="735" 
d="M82 695h99v-721h-99v721zM655 695v-523c0 -160 -90 -209 -209 -209c-52 0 -120 18 -167 59l47 78c42 -33 77 -45 123 -45c74 0 107 39 107 138v502h99z" />
    <glyph glyph-name="Ldot" unicode="&#x13f;" horiz-adv-x="546" 
d="M82 695h99v-636h345v-85h-444v721zM363 311v115h114v-115h-114z" />
    <glyph glyph-name="Lslash" unicode="&#x141;" horiz-adv-x="587" 
d="M39 193l-29 55l113 64v383h99v-326l176 100l29 -55l-205 -117v-238h345v-85h-444v267z" />
    <glyph glyph-name="Oslash" unicode="&#xd8;" horiz-adv-x="756" 
d="M372 -37c-81 0 -150 23 -201 69l-58 -69l-53 44l66 79c-30 50 -47 114 -47 194v109c0 210 122 317 293 317c84 0 156 -26 207 -77l64 77l53 -44l-74 -89c28 -48 43 -110 43 -184v-109c0 -212 -121 -317 -293 -317zM372 616c-112 0 -193 -69 -193 -238v-87
c0 -48 7 -87 18 -120l319 383c-34 43 -85 62 -144 62zM372 53c113 0 193 69 193 238v87c0 43 -5 79 -15 109l-316 -379c34 -38 82 -55 138 -55z" />
    <glyph glyph-name="OE" unicode="&#x152;" horiz-adv-x="978" 
d="M366 695h545v-85h-330v-224h309v-85h-309v-242h337v-85h-552c-203 0 -306 110 -306 309v103c0 199 108 309 306 309zM482 62v546h-107c-129 0 -214 -65 -214 -227v-93c0 -162 85 -226 214 -226h107z" />
    <glyph glyph-name="ordmasculine" unicode="&#xba;" horiz-adv-x="483" 
d="M242 730c122 0 199 -73 199 -199v-55c0 -127 -77 -199 -199 -199s-200 72 -200 199v55c0 127 78 199 200 199zM242 356c71 0 110 40 110 127v41c0 87 -39 127 -110 127s-111 -40 -111 -127v-41c0 -87 40 -127 111 -127z" />
    <glyph glyph-name="Thorn" unicode="&#xde;" horiz-adv-x="617" 
d="M82 -26v721h99v-132h159c163 0 239 -89 239 -207v-21c0 -117 -82 -217 -239 -217h-159v-144h-99zM334 477h-153v-273h142c104 0 156 46 156 133v18c0 82 -52 122 -145 122z" />
    <glyph glyph-name="Tbar" unicode="&#x166;" horiz-adv-x="571" 
d="M335 -26h-99v330h-147v70h147v236h-220v85h539v-85h-220v-236h138v-70h-138v-330z" />
    <glyph glyph-name="Eng" unicode="&#x14a;" horiz-adv-x="701" 
d="M619 695v-783c0 -110 -55 -161 -159 -161c-35 0 -76 6 -98 14l15 79c25 -7 50 -10 74 -10c37 0 76 11 76 82v58l-300 491c-15 27 -36 63 -53 106v-597h-92v721h114l280 -465c14 -24 34 -62 51 -105v570h92z" />
    <glyph glyph-name="uni3260" unicode="&#x3260;" horiz-adv-x="910" 
d="M828 306c0 218 -157 377 -373 377s-373 -159 -373 -377s157 -377 373 -377s373 159 373 377zM892 306c0 -253 -186 -438 -437 -438c-253 0 -437 185 -437 438c0 251 184 438 437 438c251 0 437 -187 437 -438zM659 69h-86v352h-356v76h442v-428z" />
    <glyph glyph-name="uni3261" unicode="&#x3261;" horiz-adv-x="910" 
d="M261 525h86v-336h351v-79h-437v415zM828 306c0 218 -157 377 -373 377s-373 -159 -373 -377s157 -377 373 -377s373 159 373 377zM892 306c0 -253 -186 -438 -437 -438c-253 0 -437 185 -437 438c0 251 184 438 437 438c251 0 437 -187 437 -438z" />
    <glyph glyph-name="uni3262" unicode="&#x3262;" horiz-adv-x="910" 
d="M682 93h-434v428h424v-78h-338v-271h348v-79zM828 306c0 218 -157 377 -373 377s-373 -159 -373 -377s157 -377 373 -377s373 159 373 377zM892 306c0 -253 -186 -438 -437 -438c-253 0 -437 185 -437 438c0 251 184 438 437 438c251 0 437 -187 437 -438z" />
    <glyph glyph-name="uni3263" unicode="&#x3263;" horiz-adv-x="910" 
d="M686 75h-437v266h335v107h-335v77h422v-261h-335v-112h350v-77zM828 306c0 218 -157 377 -373 377s-373 -159 -373 -377s157 -377 373 -377s373 159 373 377zM892 306c0 -253 -186 -438 -437 -438c-253 0 -437 185 -437 438c0 251 184 438 437 438
c251 0 437 -187 437 -438z" />
    <glyph glyph-name="uni3264" unicode="&#x3264;" horiz-adv-x="910" 
d="M828 306c0 218 -157 377 -373 377s-373 -159 -373 -377s157 -377 373 -377s373 159 373 377zM892 306c0 -253 -186 -438 -437 -438c-253 0 -437 185 -437 438c0 251 184 438 437 438c251 0 437 -187 437 -438zM674 91h-438v426h438v-426zM587 170v268h-263v-268h263z" />
    <glyph glyph-name="uni3265" unicode="&#x3265;" horiz-adv-x="910" 
d="M828 306c0 218 -157 377 -373 377s-373 -159 -373 -377s157 -377 373 -377s373 159 373 377zM892 306c0 -253 -186 -438 -437 -438c-253 0 -437 185 -437 438c0 251 184 438 437 438c251 0 437 -187 437 -438zM669 90h-429v435h87v-143h256v143h86v-435zM583 168v137
h-256v-137h256z" />
    <glyph glyph-name="uni3266" unicode="&#x3266;" horiz-adv-x="910" 
d="M828 306c0 218 -157 377 -373 377s-373 -159 -373 -377s157 -377 373 -377s373 159 373 377zM892 306c0 -253 -186 -438 -437 -438c-253 0 -437 185 -437 438c0 251 184 438 437 438c251 0 437 -187 437 -438zM722 160l-51 -64c-44 36 -103 88 -130 112
c-44 41 -73 70 -86 93c-13 -24 -43 -56 -89 -97c-27 -24 -83 -71 -127 -107l-54 63c48 38 114 94 144 121c74 67 80 90 80 175v91h89v-91c0 -85 4 -108 78 -175c30 -27 98 -83 146 -121z" />
    <glyph glyph-name="uni3267" unicode="&#x3267;" horiz-adv-x="910" 
d="M455 82c-130 0 -229 73 -229 196v55c0 122 99 198 229 198s229 -76 229 -198v-55c0 -123 -99 -196 -229 -196zM455 453c-75 0 -141 -36 -141 -126v-43c0 -90 70 -124 141 -124s141 34 141 124v43c0 90 -66 126 -141 126zM828 306c0 218 -157 377 -373 377
s-373 -159 -373 -377s157 -377 373 -377s373 159 373 377zM892 306c0 -253 -186 -438 -437 -438c-253 0 -437 185 -437 438c0 251 184 438 437 438c251 0 437 -187 437 -438z" />
    <glyph glyph-name="uni3268" unicode="&#x3268;" horiz-adv-x="910" 
d="M892 306c0 -253 -186 -438 -437 -438c-253 0 -437 185 -437 438c0 251 184 438 437 438c251 0 437 -187 437 -438zM828 306c0 218 -157 377 -373 377s-373 -159 -373 -377s157 -377 373 -377s373 159 373 377zM217 440v76h477v-76h-194v-22c0 -75 4 -87 63 -141
c35 -32 87 -70 151 -115l-47 -65c-58 43 -105 77 -156 122c-25 22 -41 39 -52 62c-11 -23 -29 -40 -54 -62c-51 -45 -98 -79 -156 -122l-52 65c64 45 116 83 151 115c59 54 63 66 63 141v22h-194z" />
    <glyph glyph-name="uni3269" unicode="&#x3269;" horiz-adv-x="910" 
d="M892 306c0 -253 -186 -438 -437 -438c-253 0 -437 185 -437 438c0 251 184 438 437 438c251 0 437 -187 437 -438zM828 306c0 218 -157 377 -373 377s-373 -159 -373 -377s157 -377 373 -377s373 159 373 377zM212 407v76h197v90h89v-90h202v-76h-202v-10
c0 -73 3 -92 58 -139c38 -32 71 -56 149 -112l-45 -61c-63 45 -113 84 -151 116c-27 23 -44 40 -54 56c-10 -16 -28 -33 -55 -56c-38 -32 -88 -71 -151 -116l-47 61c78 56 111 80 149 112c55 47 58 66 58 139v10h-197z" />
    <glyph glyph-name="uni326A" unicode="&#x326a;" horiz-adv-x="910" 
d="M892 306c0 -253 -186 -438 -437 -438c-253 0 -437 185 -437 438c0 251 184 438 437 438c251 0 437 -187 437 -438zM828 306c0 218 -157 377 -373 377s-373 -159 -373 -377s157 -377 373 -377s373 159 373 377zM678 83h-86v170l-372 -14l-2 76l374 10v120h-363v76h449
v-438z" />
    <glyph glyph-name="uni326B" unicode="&#x326b;" horiz-adv-x="910" 
d="M683 171v-75h-442v418h438v-76h-351v-92h343v-73h-343v-102h355zM828 306c0 218 -157 377 -373 377s-373 -159 -373 -377s157 -377 373 -377s373 159 373 377zM892 306c0 -253 -186 -438 -437 -438c-253 0 -437 185 -437 438c0 251 184 438 437 438
c251 0 437 -187 437 -438z" />
    <glyph glyph-name="uni326C" unicode="&#x326c;" horiz-adv-x="910" 
d="M203 510h505v-74h-96v-267h105v-74h-523v74h106v267h-97v74zM386 436v-267h139v267h-139zM828 306c0 218 -157 377 -373 377s-373 -159 -373 -377s157 -377 373 -377s373 159 373 377zM892 306c0 -253 -186 -438 -437 -438c-253 0 -437 185 -437 438
c0 251 184 438 437 438c251 0 437 -187 437 -438z" />
    <glyph glyph-name="uni326D" unicode="&#x326d;" horiz-adv-x="910" 
d="M892 306c0 -253 -186 -438 -437 -438c-253 0 -437 185 -437 438c0 251 184 438 437 438c251 0 437 -187 437 -438zM828 306c0 218 -157 377 -373 377s-373 -159 -373 -377s157 -377 373 -377s373 159 373 377zM455 63c-145 0 -215 66 -215 141v24c0 75 70 141 215 141
s215 -66 215 -141v-24c0 -75 -70 -141 -215 -141zM500 567v-89h203v-77h-496v77h203v89h90zM455 291c-85 0 -124 -31 -124 -66v-18c0 -35 39 -66 124 -66s124 31 124 66v18c0 35 -39 66 -124 66z" />
    <glyph glyph-name="uni326E" unicode="&#x326e;" horiz-adv-x="910" 
d="M828 306c0 218 -157 377 -373 377s-373 -159 -373 -377s157 -377 373 -377s373 159 373 377zM892 306c0 -253 -186 -438 -437 -438c-253 0 -437 185 -437 438c0 251 184 438 437 438c251 0 437 -187 437 -438zM645 580v-205h81v-65h-81v-292h-76v562h76zM253 131l-41 61
c188 117 200 134 200 206v70h-182v64h260v-119c0 -118 -14 -139 -237 -282z" />
    <glyph glyph-name="uni326F" unicode="&#x326f;" horiz-adv-x="910" 
d="M828 306c0 218 -157 377 -373 377s-373 -159 -373 -377s157 -377 373 -377s373 159 373 377zM892 306c0 -253 -186 -438 -437 -438c-253 0 -437 185 -437 438c0 251 184 438 437 438c251 0 437 -187 437 -438zM645 580v-200h81v-65h-81v-297h-76v562h76zM303 534v-300h28
c81 0 135 5 200 17l8 -64c-79 -14 -135 -19 -257 -19h-55v366h76z" />
    <glyph glyph-name="uni3270" unicode="&#x3270;" horiz-adv-x="910" 
d="M828 306c0 218 -157 377 -373 377s-373 -159 -373 -377s157 -377 373 -377s373 159 373 377zM892 306c0 -253 -186 -438 -437 -438c-253 0 -437 185 -437 438c0 251 184 438 437 438c251 0 437 -187 437 -438zM222 163v368h264v-64h-188v-239h34c81 0 132 5 200 16
l10 -62c-79 -14 -149 -19 -262 -19h-58zM645 580v-197h81v-66h-81v-299h-76v562h76z" />
    <glyph glyph-name="uni3271" unicode="&#x3271;" horiz-adv-x="910" 
d="M828 306c0 218 -157 377 -373 377s-373 -159 -373 -377s157 -377 373 -377s373 159 373 377zM892 306c0 -253 -186 -438 -437 -438c-253 0 -437 185 -437 438c0 251 184 438 437 438c251 0 437 -187 437 -438zM303 317v-102h26c100 0 137 3 199 12l8 -63
c-49 -7 -91 -13 -225 -13h-83v228h181v93h-185v65h260v-220h-181zM645 580v-200h81v-65h-81v-297h-76v562h76z" />
    <glyph glyph-name="uni3272" unicode="&#x3272;" horiz-adv-x="910" 
d="M828 306c0 218 -157 377 -373 377s-373 -159 -373 -377s157 -377 373 -377s373 159 373 377zM892 306c0 -253 -186 -438 -437 -438c-253 0 -437 185 -437 438c0 251 184 438 437 438c251 0 437 -187 437 -438zM225 532h274v-368h-274v368zM424 227v242h-124v-242h124z
M645 580v-197h81v-66h-81v-299h-76v562h76z" />
    <glyph glyph-name="uni3273" unicode="&#x3273;" horiz-adv-x="910" 
d="M828 306c0 218 -157 377 -373 377s-373 -159 -373 -377s157 -377 373 -377s373 159 373 377zM892 306c0 -253 -186 -438 -437 -438c-253 0 -437 185 -437 438c0 251 184 438 437 438c251 0 437 -187 437 -438zM499 536v-372h-272v372h74v-127h125v127h73zM645 580v-196
h81v-66h-81v-300h-76v562h76zM301 345v-118h125v118h-125z" />
    <glyph glyph-name="uni3274" unicode="&#x3274;" horiz-adv-x="910" 
d="M828 306c0 218 -157 377 -373 377s-373 -159 -373 -377s157 -377 373 -377s373 159 373 377zM892 306c0 -253 -186 -438 -437 -438c-253 0 -437 185 -437 438c0 251 184 438 437 438c251 0 437 -187 437 -438zM645 580v-197h81v-66h-81v-299h-76v562h76zM405 541v-138
c0 -51 8 -67 52 -116c31 -33 54 -54 83 -79l-46 -53c-39 36 -68 64 -93 93c-8 9 -25 29 -31 41c-7 -12 -12 -19 -29 -38c-28 -31 -65 -65 -102 -100l-50 51c22 20 60 54 92 90c41 46 47 69 47 111v138h77z" />
    <glyph glyph-name="uni3275" unicode="&#x3275;" horiz-adv-x="910" 
d="M828 306c0 218 -157 377 -373 377s-373 -159 -373 -377s157 -377 373 -377s373 159 373 377zM892 306c0 -253 -186 -438 -437 -438c-253 0 -437 185 -437 438c0 251 184 438 437 438c251 0 437 -187 437 -438zM503 381v-70c0 -112 -66 -163 -145 -163s-146 51 -146 163
v69c0 114 67 165 146 165s145 -51 145 -164zM431 321v50c0 80 -32 106 -73 106s-74 -26 -74 -106v-50c0 -80 33 -105 74 -105s73 25 73 105zM645 580v-196h81v-66h-81v-300h-76v562h76z" />
    <glyph glyph-name="uni3276" unicode="&#x3276;" horiz-adv-x="910" 
d="M828 306c0 218 -157 377 -373 377s-373 -159 -373 -377s157 -377 373 -377s373 159 373 377zM892 306c0 -253 -186 -438 -437 -438c-253 0 -437 185 -437 438c0 251 184 438 437 438c251 0 437 -187 437 -438zM516 531v-65h-110v-69c0 -45 6 -66 53 -116
c31 -33 49 -48 80 -77l-47 -54c-39 36 -67 64 -95 95c-11 13 -21 25 -28 38c-7 -13 -13 -21 -30 -40c-27 -31 -59 -61 -95 -95l-51 51c25 22 57 52 89 87c43 47 47 73 47 112v68h-114v65h301zM645 580v-202h81v-65h-81v-295h-76v562h76z" />
    <glyph glyph-name="uni3277" unicode="&#x3277;" horiz-adv-x="910" 
d="M406 577v-79h115v-64h-115v-40c0 -40 8 -55 51 -108c25 -31 48 -50 85 -87l-49 -52c-45 44 -70 72 -91 96c-11 13 -22 29 -31 43c-7 -14 -20 -30 -32 -44c-15 -17 -44 -48 -94 -94l-49 51c40 37 60 56 85 84c44 49 49 69 49 111v40h-118v64h118v79h76zM645 580v-203h81
v-65h-81v-294h-76v562h76zM828 306c0 218 -157 377 -373 377s-373 -159 -373 -377s157 -377 373 -377s373 159 373 377zM892 306c0 -253 -186 -438 -437 -438c-253 0 -437 185 -437 438c0 251 184 438 437 438c251 0 437 -187 437 -438z" />
    <glyph glyph-name="uni3278" unicode="&#x3278;" horiz-adv-x="910" 
d="M828 306c0 218 -157 377 -373 377s-373 -159 -373 -377s157 -377 373 -377s373 159 373 377zM892 306c0 -253 -186 -438 -437 -438c-253 0 -437 185 -437 438c0 251 184 438 437 438c251 0 437 -187 437 -438zM278 130l-41 61c143 82 184 122 190 143l-202 -7l-3 65
l208 4v74h-191v63h267v-190c0 -59 -45 -104 -228 -213zM645 580v-202h81v-66h-81v-294h-76v562h76z" />
    <glyph glyph-name="uni3279" unicode="&#x3279;" horiz-adv-x="910" 
d="M828 306c0 218 -157 377 -373 377s-373 -159 -373 -377s157 -377 373 -377s373 159 373 377zM892 306c0 -253 -186 -438 -437 -438c-253 0 -437 185 -437 438c0 251 184 438 437 438c251 0 437 -187 437 -438zM228 537h259v-64h-185v-91h173v-62h-173v-101h30
c104 0 140 3 200 12l8 -63c-50 -7 -91 -12 -225 -12h-87v381zM645 580v-200h81v-65h-81v-297h-76v562h76z" />
    <glyph glyph-name="uni327A" unicode="&#x327a;" horiz-adv-x="910" 
d="M828 306c0 218 -157 377 -373 377s-373 -159 -373 -377s157 -377 373 -377s373 159 373 377zM892 306c0 -253 -186 -438 -437 -438c-253 0 -437 185 -437 438c0 251 184 438 437 438c251 0 437 -187 437 -438zM527 530v-61h-48v-242c18 1 33 2 60 5l5 -58
c-55 -7 -119 -10 -220 -10h-128v60h62v245h-55v61h324zM333 224h10c18 0 38 0 61 1v244h-71v-245zM645 580v-197h81v-66h-81v-299h-76v562h76z" />
    <glyph glyph-name="uni327B" unicode="&#x327b;" horiz-adv-x="910" 
d="M828 306c0 218 -157 377 -373 377s-373 -159 -373 -377s157 -377 373 -377s373 159 373 377zM892 306c0 -253 -186 -438 -437 -438c-253 0 -437 185 -437 438c0 251 184 438 437 438c251 0 437 -187 437 -438zM368 139c-87 0 -141 58 -141 120v38c0 61 54 120 141 120
c86 0 139 -59 139 -120v-38c0 -62 -53 -120 -139 -120zM368 355c-46 0 -70 -25 -70 -68v-19c0 -43 24 -67 70 -67c45 0 68 24 68 67v19c0 43 -23 68 -68 68zM645 580v-217h81v-65h-81v-280h-76v562h76zM206 503h124v75h76v-75h123v-62h-323v62z" />
    <glyph glyph-name="uni24D0" unicode="&#x24d0;" horiz-adv-x="910" 
d="M828 306c0 218 -157 377 -373 377s-373 -159 -373 -377s157 -377 373 -377s373 159 373 377zM892 306c0 -253 -186 -438 -437 -438c-253 0 -437 185 -437 438c0 251 184 438 437 438c251 0 437 -187 437 -438zM421 100c-85 0 -137 44 -137 116v20c0 72 41 122 152 122h96
v16c0 52 -18 73 -76 73c-47 0 -82 -17 -115 -40l-42 63c40 28 90 53 158 53c93 0 160 -47 160 -130v-287h-81v49h-1c-7 -16 -21 -28 -33 -36c-21 -13 -42 -19 -81 -19zM532 264v21h-94c-51 0 -70 -18 -70 -55v-10c0 -31 24 -46 61 -46c38 0 62 9 83 27c18 16 20 32 20 63z
" />
    <glyph glyph-name="uni24D1" unicode="&#x24d1;" horiz-adv-x="910" 
d="M828 306c0 218 -157 377 -373 377s-373 -159 -373 -377s157 -377 373 -377s373 159 373 377zM892 306c0 -253 -186 -438 -437 -438c-253 0 -437 185 -437 438c0 251 184 438 437 438c251 0 437 -187 437 -438zM386 82h-1v-48h-83v567h86v-199c27 40 77 48 113 48
c105 0 158 -64 158 -174v-72c0 -111 -65 -176 -162 -176c-57 0 -95 25 -111 54zM575 216v46c0 71 -27 114 -88 114s-101 -40 -101 -98v-92c0 -39 42 -83 101 -83c56 0 88 42 88 113z" />
    <glyph glyph-name="uni24D2" unicode="&#x24d2;" horiz-adv-x="910" 
d="M828 306c0 218 -157 377 -373 377s-373 -159 -373 -377s157 -377 373 -377s373 159 373 377zM892 306c0 -253 -186 -438 -437 -438c-253 0 -437 185 -437 438c0 251 184 438 437 438c251 0 437 -187 437 -438zM462 516c73 0 112 -22 145 -47l-41 -64
c-38 28 -64 35 -104 35c-43 0 -94 -24 -94 -107v-52c0 -87 54 -112 95 -112c52 0 84 14 113 36l41 -65c-27 -24 -79 -47 -155 -47c-117 0 -181 70 -181 187v52c0 117 70 184 181 184z" />
    <glyph glyph-name="uni24D3" unicode="&#x24d3;" horiz-adv-x="910" 
d="M828 306c0 218 -157 377 -373 377s-373 -159 -373 -377s157 -377 373 -377s373 159 373 377zM892 306c0 -253 -186 -438 -437 -438c-253 0 -437 185 -437 438c0 251 184 438 437 438c251 0 437 -187 437 -438zM533 42v49h-2c-23 -41 -64 -55 -117 -55
c-103 0 -157 63 -157 173v73c0 110 65 176 162 176c63 0 96 -26 109 -45v196h86v-567h-81zM341 270v-46c0 -72 33 -113 88 -113s101 42 101 101v91c0 39 -37 80 -101 80c-56 0 -88 -43 -88 -113z" />
    <glyph glyph-name="uni24D4" unicode="&#x24d4;" horiz-adv-x="910" 
d="M828 306c0 218 -157 377 -373 377s-373 -159 -373 -377s157 -377 373 -377s373 159 373 377zM892 306c0 -253 -186 -438 -437 -438c-253 0 -437 185 -437 438c0 251 184 438 437 438c251 0 437 -187 437 -438zM360 343h191v13c0 49 -33 89 -93 89c-64 0 -98 -42 -98 -94
v-8zM587 206l36 -64c-38 -25 -87 -46 -164 -46c-96 0 -183 48 -183 189v43c0 129 82 190 182 190c103 0 174 -64 174 -181v-63h-272c-1 -69 45 -105 104 -105c51 0 84 12 123 37z" />
    <glyph glyph-name="uni24D5" unicode="&#x24d5;" horiz-adv-x="910" 
d="M828 306c0 218 -157 377 -373 377s-373 -159 -373 -377s157 -377 373 -377s373 159 373 377zM892 306c0 -253 -186 -438 -437 -438c-253 0 -437 185 -437 438c0 251 184 438 437 438c251 0 437 -187 437 -438zM389 18v334h-66v73h66v43c0 78 46 122 127 122
c31 0 60 -5 77 -11l-14 -70c-19 5 -37 8 -54 8c-27 0 -50 -10 -50 -53v-39h104v-73h-104v-334h-86z" />
    <glyph glyph-name="uni24D6" unicode="&#x24d6;" horiz-adv-x="910" 
d="M828 306c0 218 -157 377 -373 377s-373 -159 -373 -377s157 -377 373 -377s373 159 373 377zM892 306c0 -253 -186 -438 -437 -438c-253 0 -437 185 -437 438c0 251 184 438 437 438c251 0 437 -187 437 -438zM542 170v48c-23 -37 -64 -49 -114 -49
c-109 0 -157 62 -157 173v66c0 110 65 176 162 176c63 0 95 -26 109 -45v38h86v-404c0 -116 -59 -173 -188 -173c-54 0 -106 19 -140 44l39 68c26 -19 65 -35 101 -35c67 0 102 30 102 93zM355 396v-39c0 -72 33 -114 88 -114s100 42 100 101v86c0 39 -38 78 -100 78
c-56 0 -88 -42 -88 -112z" />
    <glyph glyph-name="uni24D7" unicode="&#x24d7;" horiz-adv-x="910" 
d="M828 306c0 218 -157 377 -373 377s-373 -159 -373 -377s157 -377 373 -377s373 159 373 377zM892 306c0 -253 -186 -438 -437 -438c-253 0 -437 185 -437 438c0 251 184 438 437 438c251 0 437 -187 437 -438zM505 445c70 0 140 -41 140 -149v-267h-85v249
c0 75 -32 92 -80 92c-37 0 -94 -21 -94 -96v-245h-86v567h86v-203c28 37 69 52 119 52z" />
    <glyph glyph-name="uni24D8" unicode="&#x24d8;" horiz-adv-x="910" 
d="M828 306c0 218 -157 377 -373 377s-373 -159 -373 -377s157 -377 373 -377s373 159 373 377zM892 306c0 -253 -186 -438 -437 -438c-253 0 -437 185 -437 438c0 251 184 438 437 438c251 0 437 -187 437 -438zM410 26v408h86v-408h-86zM408 494v93h90v-93h-90z" />
    <glyph glyph-name="uni24D9" unicode="&#x24d9;" horiz-adv-x="910" 
d="M828 306c0 218 -157 377 -373 377s-373 -159 -373 -377s157 -377 373 -377s373 159 373 377zM892 306c0 -253 -186 -438 -437 -438c-253 0 -437 185 -437 438c0 251 184 438 437 438c251 0 437 -187 437 -438zM435 495v93h90v-93h-90zM523 435v-320
c0 -78 -40 -121 -127 -121c-29 0 -59 5 -75 11l13 69c19 -5 37 -7 53 -7c29 0 50 11 50 52v316h86z" />
    <glyph glyph-name="uni24DA" unicode="&#x24da;" horiz-adv-x="910" 
d="M828 306c0 218 -157 377 -373 377s-373 -159 -373 -377s157 -377 373 -377s373 159 373 377zM892 306c0 -253 -186 -438 -437 -438c-253 0 -437 185 -437 438c0 251 184 438 437 438c251 0 437 -187 437 -438zM666 440l-160 -168l166 -241h-109l-116 179l-51 -53v-126
h-85v567h85v-336l161 178h109z" />
    <glyph glyph-name="uni24DB" unicode="&#x24db;" horiz-adv-x="910" 
d="M828 306c0 218 -157 377 -373 377s-373 -159 -373 -377s157 -377 373 -377s373 159 373 377zM892 306c0 -253 -186 -438 -437 -438c-253 0 -437 185 -437 438c0 251 184 438 437 438c251 0 437 -187 437 -438zM411 23v567h86v-567h-86z" />
    <glyph glyph-name="uni24DC" unicode="&#x24dc;" horiz-adv-x="910" 
d="M828 306c0 218 -157 377 -373 377s-373 -159 -373 -377s157 -377 373 -377s373 159 373 377zM892 306c0 -253 -186 -438 -437 -438c-253 0 -437 185 -437 438c0 251 184 438 437 438c251 0 437 -187 437 -438zM611 512c77 0 131 -53 131 -153v-263h-86v238
c0 75 -22 100 -69 100c-40 0 -77 -23 -77 -92v-246h-86v239c0 75 -25 99 -67 99c-38 0 -79 -19 -79 -84v-254h-86v409h83v-55c16 38 52 62 104 62c53 0 91 -27 109 -64c23 36 62 64 123 64z" />
    <glyph glyph-name="uni24DD" unicode="&#x24dd;" horiz-adv-x="910" 
d="M828 306c0 218 -157 377 -373 377s-373 -159 -373 -377s157 -377 373 -377s373 159 373 377zM892 306c0 -253 -186 -438 -437 -438c-253 0 -437 185 -437 438c0 251 184 438 437 438c251 0 437 -187 437 -438zM498 512c70 0 140 -42 140 -149v-267h-85v249
c0 74 -33 91 -80 91c-37 0 -94 -20 -94 -95v-245h-86v409h82v-49c29 42 71 56 123 56z" />
    <glyph glyph-name="uni24DE" unicode="&#x24de;" horiz-adv-x="910" 
d="M828 306c0 218 -157 377 -373 377s-373 -159 -373 -377s157 -377 373 -377s373 159 373 377zM892 306c0 -253 -186 -438 -437 -438c-253 0 -437 185 -437 438c0 251 184 438 437 438c251 0 437 -187 437 -438zM456 519c114 0 188 -67 188 -186v-50
c0 -119 -74 -187 -188 -187c-113 0 -187 68 -187 187v50c0 119 74 186 187 186zM456 171c65 0 102 38 102 119v35c0 81 -37 119 -102 119c-64 0 -101 -38 -101 -119v-35c0 -81 37 -119 101 -119z" />
    <glyph glyph-name="uni24DF" unicode="&#x24df;" horiz-adv-x="910" 
d="M828 306c0 218 -157 377 -373 377s-373 -159 -373 -377s157 -377 373 -377s373 159 373 377zM892 306c0 -253 -186 -438 -437 -438c-253 0 -437 185 -437 438c0 251 184 438 437 438c251 0 437 -187 437 -438zM501 154c-52 0 -89 23 -107 48v-202h-86v568h83v-46
c23 38 70 54 117 54c107 0 157 -69 157 -174v-72c0 -114 -63 -176 -164 -176zM581 342v46c0 71 -33 114 -88 114c-61 0 -101 -40 -101 -98v-92c0 -39 42 -83 101 -83c56 0 88 42 88 113z" />
    <glyph glyph-name="uni24E0" unicode="&#x24e0;" horiz-adv-x="910" 
d="M828 306c0 218 -157 377 -373 377s-373 -159 -373 -377s157 -377 373 -377s373 159 373 377zM892 306c0 -253 -186 -438 -437 -438c-253 0 -437 185 -437 438c0 251 184 438 437 438c251 0 437 -187 437 -438zM520 0v204c-21 -34 -65 -50 -114 -50
c-106 0 -157 63 -157 173v73c0 110 65 176 162 176c63 0 95 -26 109 -45v37h86v-568h-86zM333 388v-46c0 -72 33 -113 88 -113s101 42 101 101v93c0 39 -37 78 -101 78c-56 0 -88 -43 -88 -113z" />
    <glyph glyph-name="uni24E1" unicode="&#x24e1;" horiz-adv-x="910" 
d="M828 306c0 218 -157 377 -373 377s-373 -159 -373 -377s157 -377 373 -377s373 159 373 377zM892 306c0 -253 -186 -438 -437 -438c-253 0 -437 185 -437 438c0 251 184 438 437 438c251 0 437 -187 437 -438zM622 494l-25 -82c-13 6 -27 11 -50 11
c-48 0 -94 -39 -94 -95v-242h-86v408h83v-60c29 49 64 68 122 68c16 0 36 -3 50 -8z" />
    <glyph glyph-name="uni24E2" unicode="&#x24e2;" horiz-adv-x="910" 
d="M828 306c0 218 -157 377 -373 377s-373 -159 -373 -377s157 -377 373 -377s373 159 373 377zM892 306c0 -253 -186 -438 -437 -438c-253 0 -437 185 -437 438c0 251 184 438 437 438c251 0 437 -187 437 -438zM455 168c46 0 75 14 75 45v5c0 30 -7 37 -83 53
c-95 20 -143 49 -143 127v8c0 56 46 112 155 112c51 0 106 -8 151 -39l-40 -64c-24 19 -67 30 -101 30c-60 0 -80 -16 -80 -40v-6c0 -29 17 -38 80 -50c98 -19 148 -47 148 -129v-8c0 -64 -59 -117 -159 -117c-69 0 -125 18 -168 50l38 67c36 -24 77 -44 127 -44z" />
    <glyph glyph-name="uni24E3" unicode="&#x24e3;" horiz-adv-x="910" 
d="M828 306c0 218 -157 377 -373 377s-373 -159 -373 -377s157 -377 373 -377s373 159 373 377zM892 306c0 -253 -186 -438 -437 -438c-253 0 -437 185 -437 438c0 251 184 438 437 438c251 0 437 -187 437 -438zM380 166v225h-65v74h65v102h85v-102h105v-74h-105v-219
c0 -47 26 -47 49 -47c17 0 34 3 52 11l13 -69c-17 -7 -47 -16 -80 -16c-82 0 -119 37 -119 115z" />
    <glyph glyph-name="uni24E4" unicode="&#x24e4;" horiz-adv-x="910" 
d="M828 306c0 218 -157 377 -373 377s-373 -159 -373 -377s157 -377 373 -377s373 159 373 377zM892 306c0 -253 -186 -438 -437 -438c-253 0 -437 185 -437 438c0 251 184 438 437 438c251 0 437 -187 437 -438zM424 81c-70 0 -142 41 -142 148v269h86v-250
c0 -75 33 -92 81 -92c36 0 91 21 91 96v246h86v-409h-82v48c-31 -41 -69 -56 -120 -56z" />
    <glyph glyph-name="uni24E5" unicode="&#x24e5;" horiz-adv-x="910" 
d="M828 306c0 218 -157 377 -373 377s-373 -159 -373 -377s157 -377 373 -377s373 159 373 377zM892 306c0 -253 -186 -438 -437 -438c-253 0 -437 185 -437 438c0 251 184 438 437 438c251 0 437 -187 437 -438zM518 82h-114l-133 405h93l97 -328h3l98 328h90z" />
    </font>
</defs>
</svg>
