<?xml version="1.0" standalone="no"?>
<!DOCTYPE svg PUBLIC "-//W3C//DTD SVG 1.1//EN" "http://www.w3.org/Graphics/SVG/1.1/DTD/svg11.dtd" >
<svg>
<metadata>
Created by FontForge 20120731 at Thu Mar 17 04:12:51 2016
 By www-data
</metadata>
<defs>
<font id="NanumSquareOTFR00" horiz-adv-x="940" vert-adv-y="1000" >
  <font-face 
    font-family="(null)"
    font-weight="400"
    font-stretch="normal"
    units-per-em="1000"
    panose-1="2 0 5 3 0 0 0 0 0 0"
    ascent="800"
    descent="-200"
    x-height="513"
    cap-height="695"
    bbox="-70 -249 1161 832"
    underline-thickness="50"
    underline-position="-100"
    unicode-range="U+0020-FFE6"
  />
<missing-glyph horiz-adv-x="910" 
d="M855 757v-900h-800v900h800zM790 -107l-335 385l-335 -385h670zM95 692v-768l334 384zM121 721l333 -384l334 384h-667zM815 -77v770l-334 -386z" />
    <glyph glyph-name=".notdef" horiz-adv-x="910" 
d="M855 757v-900h-800v900h800zM790 -107l-335 385l-335 -385h670zM95 692v-768l334 384zM121 721l333 -384l334 384h-667zM815 -77v770l-334 -386z" />
    <glyph glyph-name="space" unicode=" " horiz-adv-x="250" 
 />
    <glyph glyph-name="exclam" unicode="!" horiz-adv-x="280" 
d="M92 -54v98h96v-98h-96zM169 148h-58l-12 566h82z" />
    <glyph glyph-name="quotedbl" unicode="&#x22;" horiz-adv-x="373" 
d="M144 488h-58l-10 242h78zM287 488h-58l-10 242h78z" />
    <glyph glyph-name="numbersign" unicode="#" horiz-adv-x="585" 
d="M411 255h110v-61h-118l-31 -220h-57l31 220h-142l-30 -220h-58l31 220h-109v61h117l23 164h-109v61h118l30 215h57l-30 -215h141l30 215h58l-31 -215h110v-61h-118zM354 255l23 164h-142l-23 -164h142z" />
    <glyph glyph-name="dollar" unicode="$" horiz-adv-x="604" 
d="M277 -93v75c-86 4 -164 34 -222 79l36 55c63 -47 127 -69 186 -73v270c-155 35 -209 92 -209 178v22c0 102 83 166 209 174v64h55v-64c79 -5 142 -30 187 -61l-34 -50c-38 26 -91 44 -153 49v-256c162 -41 216 -93 216 -186v-22c0 -96 -80 -168 -216 -178v-76h-55z
M479 181c0 54 -30 90 -147 120v-257c93 10 147 57 147 117v20zM137 494c0 -54 33 -84 140 -112v243c-81 -7 -140 -48 -140 -114v-17z" />
    <glyph glyph-name="percent" unicode="%" horiz-adv-x="869" 
d="M251 -25h-64l431 720h63zM644 343c97 0 155 -61 155 -166v-45c0 -105 -58 -166 -155 -166s-155 61 -155 166v45c0 105 58 166 155 166zM644 17c58 0 97 33 97 117v41c0 83 -39 117 -97 117s-97 -34 -97 -117v-41c0 -84 39 -117 97 -117zM225 703c97 0 155 -61 155 -166
v-45c0 -105 -58 -166 -155 -166s-155 61 -155 166v45c0 105 58 166 155 166zM225 377c58 0 97 33 97 117v41c0 83 -39 117 -97 117s-97 -34 -97 -117v-41c0 -84 39 -117 97 -117z" />
    <glyph glyph-name="ampersand" unicode="&#x26;" horiz-adv-x="664" 
d="M542 347h65c0 -98 -25 -181 -70 -246l108 -127h-80l-68 80c-60 -63 -145 -91 -224 -91h-6c-121 0 -231 65 -231 177v24c0 91 49 143 187 213l-19 23c-33 39 -79 90 -79 151v18c0 64 60 137 173 137c107 0 173 -72 173 -137v-19c0 -64 -36 -122 -154 -190l178 -210
c30 51 47 119 47 197zM271 23c75 0 141 28 187 78l-195 229c-109 -58 -160 -96 -160 -170v-17c0 -64 72 -120 168 -120zM190 554c0 -47 50 -103 88 -149c110 59 128 106 128 149v11c0 47 -49 83 -108 83s-108 -36 -108 -83v-11z" />
    <glyph glyph-name="quotesingle" unicode="'" horiz-adv-x="230" 
d="M144 488h-58l-10 242h78z" />
    <glyph glyph-name="parenleft" unicode="(" horiz-adv-x="313" 
d="M151 324v-50c0 -152 34 -303 137 -444h-64c-99 118 -147 271 -147 449v40c0 178 48 329 147 447h64c-98 -132 -137 -282 -137 -442z" />
    <glyph glyph-name="parenright" unicode=")" horiz-adv-x="313" 
d="M162 274v50c0 160 -39 310 -137 442h64c99 -118 147 -269 147 -447v-40c0 -178 -48 -331 -147 -449h-64c103 141 137 292 137 444z" />
    <glyph glyph-name="asterisk" unicode="*" horiz-adv-x="459" 
d="M204 491l-128 -83l-31 57l142 69l-142 68l31 57l127 -83l-6 153h66l-7 -153l128 83l30 -57l-142 -68l142 -69l-30 -57l-128 83l7 -152h-66z" />
    <glyph glyph-name="plus" unicode="+" horiz-adv-x="600" 
d="M267 568h66v-217h213v-64h-213v-231h-66v231h-213v64h213v217z" />
    <glyph glyph-name="comma" unicode="," horiz-adv-x="245" 
d="M47 -175l42 225h88l-72 -225h-58z" />
    <glyph glyph-name="hyphen" unicode="-" horiz-adv-x="412" 
d="M50 302v64h312v-64h-312z" />
    <glyph glyph-name="period" unicode="." horiz-adv-x="245" 
d="M72 -55v100h101v-100h-101z" />
    <glyph glyph-name="slash" unicode="/" horiz-adv-x="389" 
d="M311 759h68l-302 -884h-67z" />
    <glyph glyph-name="zero" unicode="0" horiz-adv-x="600" 
d="M545 391v-112c0 -204 -73 -316 -246 -316c-171 0 -244 114 -244 316v112c0 202 76 315 244 315c170 0 246 -113 246 -315zM473 278v114c0 178 -59 251 -174 251c-111 0 -172 -74 -172 -251v-114c0 -179 61 -252 172 -252c115 0 174 72 174 252z" />
    <glyph glyph-name="one" unicode="1" horiz-adv-x="600" 
d="M381 -26h-70v633l-174 -106l-32 56l223 138h53v-721z" />
    <glyph glyph-name="two" unicode="2" horiz-adv-x="600" 
d="M77 34l269 315c79 93 92 130 92 168v8c0 72 -50 117 -137 117c-63 0 -120 -25 -167 -109l-56 35c34 62 101 138 221 138c128 0 210 -72 210 -180v-10c0 -78 -58 -143 -120 -215l-224 -263h370v-64h-458v60z" />
    <glyph glyph-name="three" unicode="3" horiz-adv-x="600" 
d="M139 558l-55 36c36 58 98 112 208 112c131 0 213 -72 213 -180v-10c0 -57 -28 -129 -124 -162c99 -17 152 -84 152 -168v-15c0 -103 -65 -208 -242 -208c-84 0 -163 26 -231 80l35 56c70 -51 130 -72 196 -72c126 0 173 76 173 143v13c0 109 -98 137 -167 137h-81v60h84
c90 0 134 75 134 137v8c0 72 -54 117 -141 117c-57 0 -113 -19 -154 -84z" />
    <glyph glyph-name="four" unicode="4" horiz-adv-x="600" 
d="M400 425h70v-227h106v-64h-106v-160h-70v160h-361v64l350 497h80l-349 -497h280v227z" />
    <glyph glyph-name="five" unicode="5" horiz-adv-x="600" 
d="M475 178v13c0 115 -59 166 -163 166c-61 0 -110 -26 -142 -57h-66l23 395h371v-64h-309l-11 -262c32 30 91 51 151 51c142 0 215 -98 215 -226v-15c0 -103 -64 -216 -244 -216c-98 0 -170 31 -234 80l36 57c69 -53 131 -73 198 -73c129 0 175 85 175 151z" />
    <glyph glyph-name="six" unicode="6" horiz-adv-x="600" 
d="M516 657l-33 -57c-45 26 -98 43 -153 43c-135 0 -184 -113 -195 -304c22 43 81 101 182 101c123 0 229 -82 229 -223v-24c0 -142 -102 -230 -236 -230c-136 0 -244 92 -244 293v24c0 310 101 426 265 426c65 0 131 -19 185 -49zM142 220v-13c0 -108 68 -181 166 -181
s169 62 169 170v15c0 108 -80 168 -168 168c-84 0 -167 -67 -167 -159z" />
    <glyph glyph-name="seven" unicode="7" horiz-adv-x="600" 
d="M545 641l-292 -667h-79l293 657h-405v64h483v-54z" />
    <glyph glyph-name="eight" unicode="8" horiz-adv-x="600" 
d="M159 523v-12c0 -78 55 -141 141 -141s141 63 141 141v12c0 74 -56 121 -141 121c-86 0 -141 -47 -141 -121zM139 171v-12c0 -74 61 -133 161 -133c101 0 161 59 161 133v12c0 85 -66 142 -161 142c-93 0 -161 -55 -161 -142zM68 157v17c0 79 54 145 132 169
c-69 32 -109 92 -109 167v16c0 103 88 180 209 180s209 -77 209 -180v-16c0 -75 -40 -135 -110 -167c78 -23 133 -90 133 -169v-17c0 -115 -93 -194 -232 -194s-232 79 -232 194z" />
    <glyph glyph-name="nine" unicode="9" horiz-adv-x="600" 
d="M86 12l29 59c45 -26 98 -44 155 -44c148 0 189 114 195 301c-20 -42 -81 -104 -182 -104c-123 0 -229 84 -229 225v24c0 142 102 233 236 233s244 -93 244 -294v-30c0 -318 -87 -419 -266 -419c-65 0 -128 18 -182 49zM458 446v13c0 108 -68 184 -166 184
s-169 -65 -169 -173v-15c0 -108 80 -170 168 -170c84 0 167 69 167 161z" />
    <glyph glyph-name="colon" unicode=":" horiz-adv-x="305" 
d="M102 25v100h101v-100h-101zM102 467v100h101v-100h-101z" />
    <glyph glyph-name="semicolon" unicode=";" horiz-adv-x="305" 
d="M102 467v100h101v-100h-101zM77 -95l42 225h88l-72 -225h-58z" />
    <glyph glyph-name="less" unicode="&#x3c;" horiz-adv-x="600" 
d="M145 323v-6l390 -203v-73l-470 250v59l470 250v-72z" />
    <glyph glyph-name="equal" unicode="=" horiz-adv-x="600" 
d="M74 393v65h452v-65h-452zM74 182v65h452v-65h-452z" />
    <glyph glyph-name="greater" unicode="&#x3e;" horiz-adv-x="600" 
d="M455 317v6l-390 205v72l470 -250v-59l-470 -250v73z" />
    <glyph glyph-name="question" unicode="?" horiz-adv-x="520" 
d="M188 -54v98h96v-98h-96zM270 141h-68v47c0 67 23 98 97 170c47 46 94 82 94 151v16c0 72 -53 117 -136 117c-68 0 -125 -29 -166 -76l-45 46c36 43 107 94 209 94c132 0 210 -71 210 -180v-17c0 -98 -67 -145 -129 -204c-44 -42 -66 -68 -66 -120v-44z" />
    <glyph glyph-name="at" unicode="@" horiz-adv-x="983" 
d="M753 45c-53 0 -111 26 -131 86h-1c-25 -64 -101 -84 -148 -84c-123 0 -184 74 -184 195v76c0 122 66 195 183 195c67 0 111 -28 133 -64v58h71v-321c0 -56 35 -79 78 -79c66 0 113 53 113 190v11c0 226 -130 367 -386 367c-219 0 -365 -142 -365 -379v-17
c0 -247 139 -393 385 -393c102 0 202 21 285 65l28 -57c-83 -45 -191 -71 -310 -71c-280 0 -454 174 -454 455v19c0 254 164 440 431 440c293 0 452 -175 452 -426v-13c0 -112 -38 -253 -180 -253zM362 306v-52c0 -97 41 -139 118 -139c73 0 123 41 123 122v100
c0 54 -46 109 -123 109s-118 -44 -118 -140z" />
    <glyph glyph-name="A" unicode="A" horiz-adv-x="658" 
d="M369 695l267 -721h-75l-80 224h-305l-82 -224h-72l268 721h79zM270 454l-72 -195h261l-70 195c-18 49 -31 85 -60 179c-27 -94 -41 -130 -59 -179z" />
    <glyph glyph-name="B" unicode="B" horiz-adv-x="615" 
d="M83 -26v721h230c153 0 229 -58 229 -176v-21c0 -63 -30 -123 -116 -144c88 -13 149 -65 149 -165v-25c0 -118 -75 -190 -231 -190h-261zM152 321v-285h186c113 0 166 44 166 129v22c0 88 -44 134 -188 134h-164zM308 634h-156v-254h163c100 0 157 30 157 120v18
c0 85 -51 116 -164 116z" />
    <glyph glyph-name="C" unicode="C" horiz-adv-x="630" 
d="M342 706c96 0 168 -26 228 -72l-36 -55c-65 46 -119 61 -192 61c-133 0 -206 -103 -206 -254v-92c0 -177 80 -264 213 -264c90 0 151 33 198 74l41 -55c-53 -48 -126 -86 -240 -86c-187 0 -283 122 -283 331v89c0 204 102 323 277 323z" />
    <glyph glyph-name="D" unicode="D" horiz-adv-x="668" 
d="M83 695h225c182 0 292 -110 292 -309v-103c0 -199 -110 -309 -292 -309h-225v721zM153 633v-597h156c129 0 221 80 221 252v93c0 172 -92 252 -221 252h-156z" />
    <glyph glyph-name="E" unicode="E" horiz-adv-x="588" 
d="M83 695h434v-62h-364v-258h343v-62h-343v-277h371v-62h-441v721z" />
    <glyph glyph-name="F" unicode="F" horiz-adv-x="561" 
d="M153 -26h-70v721h428v-62h-358v-276h337v-62h-337v-321z" />
    <glyph glyph-name="G" unicode="G" horiz-adv-x="656" 
d="M345 706c101 0 173 -26 233 -72l-36 -55c-65 46 -121 61 -197 61c-139 0 -209 -103 -209 -254v-92c0 -177 76 -264 223 -264c58 0 129 12 169 36v228h-170v62h238v-329c-62 -45 -144 -64 -240 -64c-199 0 -291 122 -291 331v89c0 204 99 323 280 323z" />
    <glyph glyph-name="H" unicode="H" horiz-adv-x="677" 
d="M524 -26v341h-371v-341h-70v721h70v-310h371v310h70v-721h-70z" />
    <glyph glyph-name="I" unicode="I" horiz-adv-x="236" 
d="M83 -26v721h70v-721h-70z" />
    <glyph glyph-name="J" unicode="J" horiz-adv-x="453" 
d="M303 172v523h70v-530c0 -160 -86 -202 -184 -202c-59 0 -122 14 -169 55l34 57c42 -34 85 -46 131 -46c85 0 118 44 118 143z" />
    <glyph glyph-name="K" unicode="K" horiz-adv-x="644" 
d="M595 695l-300 -308l319 -413h-90l-279 362l-92 -95v-267h-70v721h70v-364l348 364h94z" />
    <glyph glyph-name="L" unicode="L" horiz-adv-x="534" 
d="M83 695h70v-659h361v-62h-431v721z" />
    <glyph glyph-name="M" unicode="M" horiz-adv-x="824" 
d="M379 94l-191 408c-17 34 -25 48 -36 91v-619h-69v721h86l244 -528l245 528h83v-721h-69v619c-9 -43 -17 -57 -34 -91l-193 -408h-66z" />
    <glyph glyph-name="N" unicode="N" horiz-adv-x="681" 
d="M83 -26v721h83l331 -564c12 -20 20 -37 34 -67v631h67v-721h-83l-332 566c-12 21 -20 35 -33 65v-631h-67z" />
    <glyph glyph-name="O" unicode="O" horiz-adv-x="692" 
d="M346 706c178 0 281 -125 281 -322v-99c0 -197 -103 -322 -281 -322s-281 125 -281 322v99c0 197 102 322 281 322zM346 26c128 0 210 93 210 265v87c0 172 -82 265 -210 265s-210 -93 -210 -265v-87c0 -172 82 -265 210 -265z" />
    <glyph glyph-name="P" unicode="P" horiz-adv-x="598" 
d="M83 -26v721h244c153 0 231 -88 231 -206v-21c0 -117 -84 -209 -231 -209h-174v-285h-70zM321 632h-168v-310h157c124 0 177 58 177 148v18c0 85 -53 144 -166 144z" />
    <glyph glyph-name="Q" unicode="Q" horiz-adv-x="692" 
d="M346 706c178 0 281 -125 281 -322v-99c0 -96 -24 -175 -69 -230l84 -84l-45 -47l-87 87c-44 -31 -99 -48 -164 -48c-178 0 -281 125 -281 322v99c0 197 102 322 281 322zM346 26c44 0 83 11 115 33l-93 94l45 47l95 -95c31 44 49 107 49 186v87c0 172 -83 265 -211 265
s-211 -93 -211 -265v-87c0 -172 83 -265 211 -265z" />
    <glyph glyph-name="R" unicode="R" horiz-adv-x="630" 
d="M499 -26l-139 312c-9 -1 -18 -1 -27 -1h-180v-311h-70v721h249c144 0 227 -83 227 -196v-15c0 -87 -50 -154 -130 -183l145 -327h-75zM322 632h-169v-284h158c125 0 177 52 177 139v10c0 84 -54 135 -166 135z" />
    <glyph glyph-name="S" unicode="S" horiz-adv-x="606" 
d="M302 28c113 0 180 59 180 124v21c0 68 -35 103 -189 138c-168 38 -220 98 -220 189v23c0 109 99 183 236 183c97 0 165 -26 214 -61l-33 -57c-46 33 -107 54 -181 54c-89 0 -165 -44 -165 -119v-20c0 -62 40 -98 171 -128c186 -42 238 -97 238 -200v-23
c0 -103 -92 -189 -248 -189c-95 0 -181 31 -245 80l36 59c71 -52 141 -74 206 -74z" />
    <glyph glyph-name="T" unicode="T" horiz-adv-x="571" 
d="M20 695h531v-62h-231v-659h-70v659h-230v62z" />
    <glyph glyph-name="U" unicode="U" horiz-adv-x="672" 
d="M336 26c125 0 187 76 187 255v414h69v-440c0 -200 -95 -292 -256 -292c-162 0 -256 92 -256 292v440h69v-414c0 -179 62 -255 187 -255z" />
    <glyph glyph-name="V" unicode="V" horiz-adv-x="639" 
d="M279 -26l-257 721h77l222 -649h1l222 649h73l-258 -721h-80z" />
    <glyph glyph-name="W" unicode="W" horiz-adv-x="958" 
d="M227 -26l-197 721h75l162 -646h1l172 646h79l172 -646h1l163 646h73l-199 -721h-80l-171 640l-171 -640h-80z" />
    <glyph glyph-name="X" unicode="X" horiz-adv-x="641" 
d="M592 695l-227 -347l242 -374h-86l-201 327l-206 -327h-80l243 375l-231 346h82l196 -302l189 302h79z" />
    <glyph glyph-name="Y" unicode="Y" horiz-adv-x="602" 
d="M582 695l-244 -426v-295h-70v295l-248 426h79l205 -362l200 362h78z" />
    <glyph glyph-name="Z" unicode="Z" horiz-adv-x="597" 
d="M542 695v-47l-430 -614h449v-60h-533v55l425 606h-401v60h490z" />
    <glyph glyph-name="bracketleft" unicode="[" horiz-adv-x="356" 
d="M318 -108v-62h-235v936h235v-62h-168v-812h168z" />
    <glyph glyph-name="backslash" unicode="\" horiz-adv-x="947" 
d="M40 353v51h98l-70 291h67l64 -291h169l70 291h72l70 -291h170l66 291h64l-71 -291h98v-51h-111l-92 -379h-76l-91 379h-128l-91 -379h-76l-92 379h-110zM593 353l74 -304h3l68 304h-145zM211 353l68 -304h3l73 304h-144zM473 620l-52 -216h104z" />
    <glyph glyph-name="bracketright" unicode="]" horiz-adv-x="356" 
d="M38 -170v62h168v812h-168v62h235v-936h-235z" />
    <glyph glyph-name="asciicircum" unicode="^" horiz-adv-x="524" 
d="M474 401h-70l-142 262l-142 -262h-70l180 323h65z" />
    <glyph glyph-name="underscore" unicode="_" horiz-adv-x="480" 
d="M480 -75v-55h-480v55h480z" />
    <glyph glyph-name="grave" unicode="`" horiz-adv-x="600" 
d="M394 568h-64l-124 141h83z" />
    <glyph glyph-name="a" unicode="a" horiz-adv-x="533" 
d="M226 -34c-102 0 -173 59 -173 154v22c0 87 65 148 190 148h152v50c0 78 -44 122 -128 122c-58 0 -113 -23 -159 -55l-33 52c50 35 111 64 193 64c120 0 194 -63 194 -172v-377h-66v66h-1c-10 -17 -32 -37 -60 -51c-30 -15 -68 -23 -109 -23zM395 142v91h-151
c-86 0 -123 -39 -123 -94v-16c0 -70 60 -98 115 -98c43 0 76 11 108 31c29 18 51 45 51 86z" />
    <glyph glyph-name="b" unicode="b" horiz-adv-x="579" 
d="M148 38h-1v-64h-67v756h68v-293c32 54 94 86 161 86c128 0 214 -84 214 -231v-95c0 -147 -91 -231 -214 -231c-76 0 -132 34 -161 72zM455 207v75c0 115 -58 179 -150 179c-74 0 -157 -55 -157 -150v-158c0 -63 65 -127 157 -127c91 0 150 67 150 181z" />
    <glyph glyph-name="c" unicode="c" horiz-adv-x="494" 
d="M278 523c76 0 132 -19 177 -53l-31 -53c-50 35 -95 45 -146 45c-95 0 -154 -68 -154 -180v-69c0 -118 60 -185 156 -185c75 0 119 24 158 53l32 -54c-39 -30 -94 -61 -191 -61c-140 0 -224 90 -224 247v67c0 157 91 243 223 243z" />
    <glyph glyph-name="d" unicode="d" horiz-adv-x="579" 
d="M432 -26v71h-1c-30 -54 -98 -79 -160 -79c-124 0 -215 84 -215 231v95c0 147 91 231 214 231c79 0 133 -36 161 -76v283h68v-756h-67zM124 282v-75c0 -115 60 -181 150 -181c87 0 157 46 157 141v162c0 63 -65 134 -157 134c-91 0 -150 -67 -150 -181z" />
    <glyph glyph-name="e" unicode="e" horiz-adv-x="545" 
d="M123 279h300v9c0 112 -55 175 -149 175c-95 0 -151 -69 -151 -175v-9zM449 79l30 -52c-43 -30 -105 -61 -196 -61c-143 0 -228 90 -228 247v67c0 153 84 243 219 243c140 0 217 -94 217 -245v-56h-368v-9c0 -119 62 -187 161 -187c72 0 126 25 165 53z" />
    <glyph glyph-name="f" unicode="f" horiz-adv-x="374" 
d="M124 -26v481h-92v58h92v68c0 117 49 155 139 155c29 0 70 -5 91 -13l-10 -56c-25 7 -49 10 -76 10c-54 0 -76 -26 -76 -99v-65h149v-58h-149v-481h-68z" />
    <glyph glyph-name="g" unicode="g" horiz-adv-x="579" 
d="M430 -19v74h-1c-30 -54 -97 -79 -159 -79c-124 0 -215 84 -215 231v85c0 147 91 231 214 231c79 0 134 -36 162 -76v66h67v-530c0 -153 -86 -232 -220 -232c-76 0 -135 21 -180 56l31 53c50 -35 88 -45 149 -45c99 0 152 53 152 166zM123 282v-65
c0 -115 60 -181 150 -181c87 0 157 46 157 141v152c0 63 -65 134 -157 134c-91 0 -150 -67 -150 -181z" />
    <glyph glyph-name="h" unicode="h" horiz-adv-x="582" 
d="M312 523c123 0 194 -74 194 -186v-363h-68v346c0 77 -29 141 -136 141c-91 0 -154 -74 -154 -137v-350h-68v756h68v-292c25 41 79 85 164 85z" />
    <glyph glyph-name="i" unicode="i" horiz-adv-x="234" 
d="M83 -26v539h68v-539h-68zM80 616v76h74v-76h-74z" />
    <glyph glyph-name="j" unicode="j" horiz-adv-x="243" 
d="M89 616v76h74v-76h-74zM160 513v-605c0 -117 -49 -157 -139 -157c-29 0 -70 5 -91 13l10 56c25 -7 49 -10 76 -10c54 0 76 28 76 101v602h68z" />
    <glyph glyph-name="k" unicode="k" horiz-adv-x="540" 
d="M499 513l-216 -207l235 -332h-83l-200 287l-87 -84v-203h-68v756h68v-472l260 255h91z" />
    <glyph glyph-name="l" unicode="l" horiz-adv-x="228" 
d="M80 -26v756h68v-756h-68z" />
    <glyph glyph-name="m" unicode="m" horiz-adv-x="878" 
d="M625 523c122 0 177 -72 177 -186v-363h-68v345c0 87 -24 142 -121 142c-87 0 -136 -71 -138 -133v-354h-68v345c0 87 -24 142 -121 142c-89 0 -138 -74 -138 -137v-350h-68v539h67v-75c24 43 72 85 151 85c86 0 139 -36 163 -98c24 46 78 98 164 98z" />
    <glyph glyph-name="n" unicode="n" horiz-adv-x="582" 
d="M312 523c123 0 194 -74 194 -186v-363h-68v346c0 77 -29 141 -136 141c-91 0 -154 -74 -154 -137v-350h-68v539h67v-75c25 41 80 85 165 85z" />
    <glyph glyph-name="o" unicode="o" horiz-adv-x="568" 
d="M284 523c144 0 229 -90 229 -245v-67c0 -155 -85 -245 -229 -245s-229 90 -229 245v67c0 156 85 245 229 245zM284 26c99 0 160 62 160 189v59c0 127 -61 189 -160 189s-160 -62 -160 -189v-59c0 -127 61 -189 160 -189z" />
    <glyph glyph-name="p" unicode="p" horiz-adv-x="579" 
d="M149 38h-1v-278h-68v753h67v-76c32 54 95 86 162 86c128 0 214 -84 214 -231v-95c0 -147 -91 -231 -214 -231c-76 0 -131 34 -160 72zM455 207v75c0 115 -58 179 -150 179c-74 0 -157 -55 -157 -150v-158c0 -63 65 -127 157 -127c91 0 150 67 150 181z" />
    <glyph glyph-name="q" unicode="q" horiz-adv-x="579" 
d="M431 -240v285h-1c-30 -54 -97 -79 -159 -79c-124 0 -215 84 -215 231v95c0 147 91 231 214 231c79 0 134 -36 162 -76v66h67v-753h-68zM124 282v-75c0 -115 60 -181 150 -181c87 0 157 46 157 141v162c0 63 -65 134 -157 134c-91 0 -150 -67 -150 -181z" />
    <glyph glyph-name="r" unicode="r" horiz-adv-x="391" 
d="M379 512l-21 -69c-18 7 -39 11 -65 11c-89 0 -145 -73 -145 -174v-306h-68v539h67v-95c23 52 73 105 155 105c30 0 55 -3 77 -11z" />
    <glyph glyph-name="s" unicode="s" horiz-adv-x="495" 
d="M251 27c87 0 134 41 134 87v10c0 54 -42 78 -145 98c-108 21 -179 56 -179 144v14c0 77 63 143 195 143c82 0 141 -23 185 -56l-31 -51c-45 30 -87 47 -156 47c-81 0 -125 -37 -125 -84v-11c0 -47 50 -71 135 -87c133 -25 189 -68 189 -154v-15c0 -86 -84 -146 -198 -146
c-87 0 -156 26 -207 63l33 54c49 -33 107 -56 170 -56z" />
    <glyph glyph-name="t" unicode="t" horiz-adv-x="388" 
d="M122 124v331h-92v58h92v139h68v-139h149v-58h-149v-328c0 -73 22 -99 76 -99c27 0 51 3 76 10l10 -56c-21 -8 -62 -13 -91 -13c-94 0 -139 38 -139 155z" />
    <glyph glyph-name="u" unicode="u" horiz-adv-x="578" 
d="M264 -34c-123 0 -188 74 -188 186v361h68v-344c0 -77 23 -141 130 -141c91 0 155 72 155 135v350h68v-539h-67v75c-25 -41 -81 -83 -166 -83z" />
    <glyph glyph-name="v" unicode="v" horiz-adv-x="501" 
d="M290 -26h-76l-197 539h73l163 -469l160 469h71z" />
    <glyph glyph-name="w" unicode="w" horiz-adv-x="754" 
d="M246 -26h-79l-147 539h69l119 -471l132 471h77l135 -471l116 471h66l-144 -539h-79l-134 463z" />
    <glyph glyph-name="x" unicode="x" horiz-adv-x="509" 
d="M478 513l-181 -260l190 -279h-79l-153 237l-158 -237h-75l192 279l-181 260h76l148 -220l147 220h74z" />
    <glyph glyph-name="y" unicode="y" horiz-adv-x="505" 
d="M17 513h70l167 -463l164 463h70l-280 -762l-58 21l69 193z" />
    <glyph glyph-name="z" unicode="z" horiz-adv-x="488" 
d="M439 513v-46l-329 -437h343v-56h-423v52l325 431h-305v56h389z" />
    <glyph glyph-name="braceleft" unicode="{" horiz-adv-x="419" 
d="M38 278v65c73 1 106 26 106 83v201c0 98 42 139 144 139h93v-61h-84c-57 0 -86 -12 -86 -80v-192c0 -47 -8 -107 -78 -123c68 -15 78 -73 78 -123v-222c0 -68 31 -74 86 -74h84v-61h-93c-102 0 -144 36 -144 133v230c0 58 -33 84 -106 85z" />
    <glyph glyph-name="bar" unicode="|" horiz-adv-x="281" 
d="M171 765v-935h-61v935h61z" />
    <glyph glyph-name="braceright" unicode="}" horiz-adv-x="419" 
d="M381 343v-65c-73 -1 -106 -27 -106 -85v-230c0 -97 -42 -133 -144 -133h-93v61h84c55 0 86 6 86 74v222c0 50 10 108 78 123c-70 16 -78 76 -78 123v192c0 68 -29 80 -86 80h-84v61h93c102 0 144 -41 144 -139v-201c0 -57 33 -82 106 -83z" />
    <glyph glyph-name="asciitilde" unicode="~" horiz-adv-x="600" 
d="M394 242c-95 0 -119 98 -189 98c-59 0 -75 -63 -80 -101h-62c12 87 55 161 142 161c97 0 121 -98 190 -98c59 0 74 53 80 101h62c-10 -87 -48 -161 -143 -161z" />
    <glyph glyph-name="uni20A9" unicode="&#x20a9;" horiz-adv-x="947" 
d="M40 353v51h98l-70 291h67l64 -291h169l70 291h72l70 -291h170l66 291h64l-71 -291h98v-51h-111l-92 -379h-76l-91 379h-128l-91 -379h-76l-92 379h-110zM593 353l74 -304h3l68 304h-145zM211 353l68 -304h3l73 304h-144zM473 620l-52 -216h104z" />
    <glyph glyph-name="uni2010" unicode="&#x2010;" horiz-adv-x="418" 
d="M384 327v-73h-350v73h350z" />
    <glyph glyph-name="copyright" unicode="&#xa9;" horiz-adv-x="840" 
d="M420 -33c-209 0 -365 165 -365 368c0 201 156 366 365 366c208 0 365 -165 365 -366c0 -203 -157 -368 -365 -368zM420 11c183 0 316 137 316 324c0 185 -133 322 -316 322c-184 0 -316 -137 -316 -322c0 -187 132 -324 316 -324zM429 545c64 0 105 -18 139 -44l-32 -50
c-37 27 -68 34 -107 34c-59 0 -107 -39 -107 -123v-52c0 -89 48 -128 108 -128c54 0 87 16 117 38l31 -51c-28 -23 -74 -47 -148 -47c-111 0 -176 69 -176 187v51c0 118 70 185 175 185z" />
    <glyph glyph-name="Korea1.99" horiz-adv-x="741" 
d="M333 369v326h79l93 -199h2l88 199h81v-326h-55v261h-3l-89 -196h-49l-93 196h-2v-261h-52zM130 369v276h-103v50h264v-50h-103v-276h-58z" />
    <glyph glyph-name="Korea1.100" horiz-adv-x="910" 
d="M671 -55v100h101v-100h-101zM405 -55v100h101v-100h-101zM139 -55v100h101v-100h-101z" />
    <glyph glyph-name="uni3164" unicode="&#x3164;" horiz-adv-x="910" 
 />
    <glyph glyph-name="uni3001" unicode="&#x3001;" horiz-adv-x="910" 
d="M322 -53l-64 -57c-67 91 -112 139 -192 202l57 50c85 -64 129 -107 199 -195z" />
    <glyph glyph-name="uni3002" unicode="&#x3002;" horiz-adv-x="910" 
d="M174 -106c-83 0 -142 63 -142 143c0 79 59 142 142 142c85 0 143 -63 143 -142c0 -80 -58 -143 -143 -143zM174 -55c55 0 92 42 92 92s-37 92 -92 92c-54 0 -91 -42 -91 -92s37 -92 91 -92z" />
    <glyph glyph-name="uni30FB" unicode="&#x30fb;" horiz-adv-x="910" 
d="M404 253v100h101v-100h-101z" />
    <glyph glyph-name="twodotenleader" unicode="&#x2025;" horiz-adv-x="910" 
d="M547 253v100h101v-100h-101zM261 253v100h101v-100h-101z" />
    <glyph glyph-name="uni22EF" unicode="&#x22ef;" horiz-adv-x="910" 
d="M671 253v100h101v-100h-101zM405 253v100h101v-100h-101zM139 253v100h101v-100h-101z" />
    <glyph glyph-name="dieresis" unicode="&#xa8;" horiz-adv-x="600" 
d="M345 595v72h66v-72h-66zM189 595v72h66v-72h-66z" />
    <glyph glyph-name="uni3003" unicode="&#x3003;" horiz-adv-x="910" 
d="M386 446h83l-153 -309h-55zM566 446h83l-153 -309h-55z" />
    <glyph glyph-name="endash" unicode="&#x2013;" horiz-adv-x="412" 
d="M412 341v-58h-412v58h412z" />
    <glyph glyph-name="emdash" unicode="&#x2014;" horiz-adv-x="824" 
d="M824 341v-58h-824v58h824z" />
    <glyph glyph-name="uni2016" unicode="&#x2016;" horiz-adv-x="910" 
d="M395 780v-960h-56v960h56zM571 780v-960h-57v960h57z" />
    <glyph glyph-name="uniFF3C" unicode="&#xff3c;" horiz-adv-x="910" 
d="M72 758l796 -881l-31 -31l-795 879z" />
    <glyph glyph-name="uniFF5E" unicode="&#xff5e;" horiz-adv-x="910" 
d="M701 366l41 -27c-30 -49 -93 -94 -151 -94c-57 0 -93 12 -136 35c-34 18 -83 41 -136 41c-49 0 -85 -26 -110 -63l-41 27c30 49 93 94 151 94c57 0 94 -12 136 -35s83 -41 136 -41c49 0 85 26 110 63z" />
    <glyph glyph-name="quoteleft" unicode="&#x2018;" horiz-adv-x="200" 
d="M172 771l-42 -225h-83l70 225h55z" />
    <glyph glyph-name="quoteright" unicode="&#x2019;" horiz-adv-x="200" 
d="M28 532l42 225h83l-70 -225h-55z" />
    <glyph glyph-name="quotedblleft" unicode="&#x201c;" horiz-adv-x="350" 
d="M322 771l-42 -225h-83l70 225h55zM175 771l-42 -225h-83l70 225h55z" />
    <glyph glyph-name="quotedblright" unicode="&#x201d;" horiz-adv-x="350" 
d="M28 532l42 225h83l-70 -225h-55zM175 532l42 225h83l-70 -225h-55z" />
    <glyph glyph-name="uni3014" unicode="&#x3014;" horiz-adv-x="344" 
d="M100 20l207 -117l-28 -49l-239 133v628l239 133l28 -49l-207 -116v-563z" />
    <glyph glyph-name="uni3015" unicode="&#x3015;" horiz-adv-x="358" 
d="M311 615v-628l-239 -133l-28 49l207 117v563c-66 38 -140 78 -207 116l28 49z" />
    <glyph glyph-name="uni3008" unicode="&#x3008;" horiz-adv-x="467" 
d="M106 301l318 -403l-39 -30l-341 433l340 433l40 -30z" />
    <glyph glyph-name="uni3009" unicode="&#x3009;" horiz-adv-x="477" 
d="M87 734l341 -433l-340 -433l-40 30l318 403l-318 403z" />
    <glyph glyph-name="uni300A" unicode="&#x300a;" horiz-adv-x="474" 
d="M83 301l248 -428l-41 -24l-261 452l261 452l41 -24zM194 301l247 -428l-41 -24l-261 452l261 452l41 -24z" />
    <glyph glyph-name="uni300B" unicode="&#x300b;" horiz-adv-x="474" 
d="M68 753l261 -452l-261 -452l-41 24l247 428l-247 428zM178 753l261 -452l-261 -452l-41 24l248 428l-248 428z" />
    <glyph glyph-name="uni300C" unicode="&#x300c;" horiz-adv-x="351" 
d="M324 769v-61h-224v-371h-73v432h297z" />
    <glyph glyph-name="uni300D" unicode="&#x300d;" horiz-adv-x="351" 
d="M324 265v-432h-297v61h224v371h73z" />
    <glyph glyph-name="uni300E" unicode="&#x300e;" horiz-adv-x="356" 
d="M111 702h170v25h-206v-348h36v323zM326 769v-109h-170v-323h-126v432h296z" />
    <glyph glyph-name="uni300F" unicode="&#x300f;" horiz-adv-x="356" 
d="M75 -125h206v348h-36v-323h-170v-25zM326 265v-432h-296v109h170v323h126z" />
    <glyph glyph-name="uni3010" unicode="&#x3010;" horiz-adv-x="374" 
d="M373 -129h-352v860h351c-149 -97 -247 -258 -247 -431s98 -333 248 -429z" />
    <glyph glyph-name="uni3011" unicode="&#x3011;" horiz-adv-x="382" 
d="M357 731v-860h-352c150 96 248 256 248 429s-98 334 -247 431h351z" />
    <glyph glyph-name="plusminus" unicode="&#xb1;" horiz-adv-x="600" 
d="M55 109h490v-60h-490v60zM267 158v214h-212v62h212v214h66v-214h212v-62h-212v-214h-66z" />
    <glyph glyph-name="multiply" unicode="&#xd7;" horiz-adv-x="600" 
d="M74 128l183 193l-183 195l43 43l183 -196l182 192l45 -45l-183 -191l183 -193l-43 -43l-182 193l-183 -193z" />
    <glyph glyph-name="divide" unicode="&#xf7;" horiz-adv-x="600" 
d="M54 351h492v-64h-492v64zM258 477v82h84v-82h-84zM258 79v82h84v-82h-84z" />
    <glyph glyph-name="notequal" unicode="&#x2260;" horiz-adv-x="600" 
d="M74 393v65h279l88 134h60l-88 -134h113v-65h-155l-96 -146h251v-65h-293l-86 -132h-60l86 132h-99v65h141l96 146h-237z" />
    <glyph glyph-name="lessequal" unicode="&#x2264;" horiz-adv-x="600" 
d="M535 166l-470 200v52l470 198v-61l-392 -165l392 -160v-64zM65 105h470v-56h-470v56z" />
    <glyph glyph-name="greaterequal" unicode="&#x2265;" horiz-adv-x="600" 
d="M535 366l-470 -200v64l392 160l-392 165v61l470 -198v-52zM65 105h470v-56h-470v56z" />
    <glyph glyph-name="infinity" unicode="&#x221e;" horiz-adv-x="600" 
d="M452 162c-75 0 -114 60 -152 108c-44 -55 -83 -108 -160 -108c-80 0 -133 58 -133 142c0 76 58 141 141 141c75 0 114 -60 152 -107c41 51 80 107 160 107c81 0 133 -58 133 -141c0 -77 -58 -142 -141 -142zM454 212c52 0 87 43 87 92c0 53 -33 92 -85 92
s-85 -46 -122 -92c31 -38 62 -92 120 -92zM144 212c51 0 88 47 123 92c-31 38 -65 92 -120 92c-53 0 -87 -43 -87 -92c0 -53 32 -92 84 -92z" />
    <glyph glyph-name="therefore" unicode="&#x2234;" horiz-adv-x="600" 
d="M547 121c0 -32 -26 -57 -57 -57c-32 0 -57 25 -57 57c0 31 25 56 57 56c31 0 57 -25 57 -56zM167 121c0 -32 -26 -57 -57 -57c-32 0 -57 25 -57 57c0 31 25 56 57 56c31 0 57 -25 57 -56zM356 516c0 -32 -24 -58 -56 -58s-58 26 -58 58c0 30 26 56 58 56s56 -26 56 -56z
" />
    <glyph glyph-name="degree" unicode="&#xb0;" horiz-adv-x="302" 
d="M267 609c0 -64 -46 -116 -116 -116s-116 52 -116 116s46 116 116 116s116 -52 116 -116zM217 609c0 38 -25 69 -66 69s-66 -31 -66 -69s25 -69 66 -69s66 31 66 69z" />
    <glyph glyph-name="minute" unicode="&#x2032;" horiz-adv-x="457" 
d="M231 730h86l-133 -242h-44z" />
    <glyph glyph-name="second" unicode="&#x2033;" horiz-adv-x="590" 
d="M231 730h83l-133 -242h-41zM367 730h83l-133 -242h-41z" />
    <glyph glyph-name="uni2103" unicode="&#x2103;" horiz-adv-x="800" 
d="M249 622c0 -50 -38 -90 -95 -90s-95 40 -95 90s38 90 95 90s95 -40 95 -90zM528 706c96 0 168 -26 228 -72l-36 -55c-65 46 -119 61 -192 61c-133 0 -206 -103 -206 -254v-92c0 -177 80 -264 213 -264c90 0 151 33 198 74l41 -55c-53 -48 -126 -86 -240 -86
c-187 0 -283 122 -283 331v89c0 204 102 323 277 323zM105 622c0 -30 19 -52 49 -52s49 22 49 52s-19 52 -49 52s-49 -22 -49 -52z" />
    <glyph glyph-name="uni212B" unicode="&#x212b;" horiz-adv-x="658" 
d="M94 -26h-72l256 690c-26 16 -42 45 -42 77c0 47 38 89 93 89c54 0 93 -42 93 -89c0 -32 -17 -60 -42 -76l256 -691h-75l-80 224h-305zM270 454l-72 -195h261l-70 195c-18 49 -31 85 -60 179c-27 -94 -41 -130 -59 -179zM329 688c30 0 49 22 49 53c0 29 -19 50 -49 50
c-31 0 -50 -21 -50 -50c0 -31 19 -53 50 -53z" />
    <glyph glyph-name="uniFFE0" unicode="&#xffe0;" horiz-adv-x="498" 
d="M260 -26v96c-127 8 -205 85 -205 234v66c0 148 84 222 205 229v96h55v-97c59 -5 106 -23 144 -51l-31 -52c-39 27 -75 39 -113 43v-406c56 6 94 27 127 52l32 -54c-35 -27 -82 -53 -159 -59v-97h-55zM122 304c0 -109 55 -164 138 -172v407c-84 -8 -138 -64 -138 -167v-68
z" />
    <glyph glyph-name="uniFFE1" unicode="&#xffe1;" horiz-adv-x="550" 
d="M62 311v56h86v100c0 165 98 228 208 228c58 0 108 -14 139 -32l-26 -56c-38 16 -66 23 -106 23c-82 0 -145 -34 -145 -170v-93h202v-56h-202v-94c0 -92 -13 -141 -64 -179v-2h363v-62h-454v55c63 37 85 89 85 186v96h-86z" />
    <glyph glyph-name="uniFFE5" unicode="&#xffe5;" horiz-adv-x="602" 
d="M268 -26v154h-173v56h173v72h-173v56h158l-218 376h78l191 -343h3l187 343h71l-213 -376h159v-56h-173v-72h173v-56h-173v-154h-70z" />
    <glyph glyph-name="male" unicode="&#x2642;" horiz-adv-x="776" 
d="M49 262c0 153 122 277 277 277c65 0 123 -22 171 -59l121 120h-109v63h219v-218h-64v110l-121 -122c37 -47 60 -106 60 -171c0 -153 -124 -277 -277 -277c-155 0 -277 124 -277 277zM112 262c0 -119 92 -219 214 -219c120 0 214 100 214 219c0 120 -94 219 -214 219
c-122 0 -214 -99 -214 -219z" />
    <glyph glyph-name="female" unicode="&#x2640;" horiz-adv-x="652" 
d="M292 57v130c-137 19 -243 131 -243 275c0 153 122 277 277 277c153 0 277 -124 277 -277c0 -144 -106 -257 -243 -275v-130h142v-64h-142v-142h-68v142h-143v64h143zM112 462c0 -119 92 -219 214 -219c120 0 214 100 214 219c0 120 -94 219 -214 219
c-122 0 -214 -99 -214 -219z" />
    <glyph glyph-name="angle" unicode="&#x2220;" horiz-adv-x="910" 
d="M760 63v-63h-610v45l472 550l51 -42l-424 -490h511z" />
    <glyph glyph-name="perpendicular" unicode="&#x22a5;" horiz-adv-x="910" 
d="M774 65v-65h-638v65h286v509h66v-509h286z" />
    <glyph glyph-name="uni2312" unicode="&#x2312;" horiz-adv-x="910" 
d="M715 575h-66c-34 61 -98 113 -193 113c-96 0 -161 -52 -195 -113h-67c52 96 133 161 260 161c129 0 209 -65 261 -161z" />
    <glyph glyph-name="partialdiff" unicode="&#x2202;" horiz-adv-x="516" 
d="M84 627l-23 45c34 25 86 53 166 53c129 0 253 -120 253 -352c0 -256 -126 -384 -262 -384c-130 0 -191 98 -191 206c0 135 98 243 217 243c86 0 147 -50 170 -91h1c1 12 1 26 1 38c0 193 -103 283 -193 283c-66 0 -111 -21 -139 -41zM225 45c97 0 166 110 181 234
c-21 55 -79 103 -154 103c-85 0 -157 -79 -157 -184c0 -95 53 -153 130 -153z" />
    <glyph glyph-name="gradient" unicode="&#x2207;" horiz-adv-x="910" 
d="M455 78l291 467h-582zM65 596h780l-390 -618z" />
    <glyph glyph-name="equivalence" unicode="&#x2261;" horiz-adv-x="600" 
d="M548 145h-493v51h493v-51zM548 437h-493v51h493v-51zM548 291h-493v51h493v-51z" />
    <glyph glyph-name="uni2252" unicode="&#x2252;" horiz-adv-x="600" 
d="M55 204v57h492v-57h-492zM55 366v56h492v-56h-492zM145 535c0 34 29 63 63 63s63 -29 63 -63s-29 -63 -63 -63s-63 29 -63 63zM339 89c0 34 29 64 63 64s63 -30 63 -64s-29 -63 -63 -63s-63 29 -63 63z" />
    <glyph glyph-name="section" unicode="&#xa7;" horiz-adv-x="514" 
d="M236 -155c-74 0 -123 17 -164 40v56c44 -19 83 -38 158 -38c91 0 134 40 134 98c0 60 -26 80 -101 104c-127 41 -227 61 -227 188c0 67 38 111 106 132c-37 26 -57 65 -57 124c0 92 66 156 190 156c72 0 111 -17 143 -33v-55c-31 14 -79 29 -142 29
c-80 0 -126 -33 -126 -91c0 -55 18 -80 82 -101c149 -48 246 -64 246 -190c0 -72 -39 -115 -108 -136c43 -27 62 -63 62 -121c0 -100 -71 -162 -196 -162zM301 366c-36 11 -69 20 -104 32c-62 -12 -96 -49 -96 -100c0 -57 29 -86 96 -107c36 -11 78 -21 113 -35
c66 13 100 51 100 103c0 60 -35 84 -109 107z" />
    <glyph glyph-name="uni203B" unicode="&#x203b;" horiz-adv-x="910" 
d="M492 314l324 -320l-45 -44l-320 323l-319 -323l-42 42l322 320l-320 321l41 44l319 -323l322 323l40 -42zM514 611h1c0 -37 -31 -70 -69 -70c-37 0 -70 33 -70 70s32 69 69 69s69 -32 69 -69zM217 311h1c0 -36 -31 -68 -69 -68c-36 0 -70 32 -70 68c0 38 33 70 69 70
c37 0 69 -32 69 -70zM831 311c0 -36 -32 -67 -69 -67c-36 0 -69 31 -69 67c0 40 31 70 68 70s70 -30 70 -70zM515 3c0 -36 -31 -68 -69 -68c-37 0 -68 32 -68 68c0 39 30 70 67 70s70 -31 70 -70z" />
    <glyph glyph-name="uni2606" unicode="&#x2606;" horiz-adv-x="910" 
d="M457 764l108 -319h337l-273 -203l102 -322l-274 195l-279 -195l105 322l-275 203h342zM538 408l-82 241l-80 -241h-258l207 -154l-81 -243l212 148l207 -148l-76 243l206 154h-255z" />
    <glyph glyph-name="uni2605" unicode="&#x2605;" horiz-adv-x="910" 
d="M457 764l108 -319h337l-273 -203l102 -322l-274 195l-279 -195l105 322l-275 203h342z" />
    <glyph glyph-name="circle" unicode="&#x25cb;" horiz-adv-x="910" 
d="M96 344c0 197 160 359 358 359c199 0 359 -162 359 -359c0 -199 -160 -359 -359 -359c-198 0 -358 160 -358 359zM146 344c0 -170 138 -308 308 -308c172 0 309 138 309 308s-137 309 -309 309c-170 0 -308 -139 -308 -309z" />
    <glyph glyph-name="H18533" unicode="&#x25cf;" horiz-adv-x="910" 
d="M96 344c0 197 160 359 358 359c199 0 359 -162 359 -359c0 -199 -160 -359 -359 -359c-198 0 -358 160 -358 359z" />
    <glyph glyph-name="uni25CE" unicode="&#x25ce;" horiz-adv-x="910" 
d="M96 344c0 197 160 359 358 359c199 0 359 -162 359 -359c0 -199 -160 -359 -359 -359c-198 0 -358 160 -358 359zM148 344c0 -169 137 -306 306 -306c171 0 307 137 307 306c0 168 -136 307 -307 307c-169 0 -306 -139 -306 -307zM239 344c0 118 96 215 215 215
s215 -97 215 -215c0 -119 -96 -215 -215 -215s-215 96 -215 215zM292 344c0 -89 73 -162 162 -162c90 0 163 73 163 162c0 88 -73 163 -163 163c-89 0 -162 -75 -162 -163z" />
    <glyph glyph-name="uni25C7" unicode="&#x25c7;" horiz-adv-x="910" 
d="M66 343l389 389l388 -389l-388 -389zM766 343l-311 312l-312 -311l312 -313z" />
    <glyph glyph-name="uni25C6" unicode="&#x25c6;" horiz-adv-x="910" 
d="M456 -46l-390 390l389 388l389 -389z" />
    <glyph glyph-name="H22073" unicode="&#x25a1;" horiz-adv-x="910" 
d="M111 0v687h687v-687h-687zM747 636h-585v-584h585v584z" />
    <glyph glyph-name="filledbox" unicode="&#x25a0;" horiz-adv-x="910" 
d="M799 0h-688v687h688v-687z" />
    <glyph glyph-name="uni25B3" unicode="&#x25b3;" horiz-adv-x="910" 
d="M823 -69h-736l368 731zM170 -19h566l-283 565z" />
    <glyph glyph-name="triagup" unicode="&#x25b2;" horiz-adv-x="910" 
d="M822 -69h-734l367 731z" />
    <glyph glyph-name="uni25BD" unicode="&#x25bd;" horiz-adv-x="910" 
d="M87 652h736l-368 -731zM738 601h-566l283 -565z" />
    <glyph glyph-name="triagdn" unicode="&#x25bc;" horiz-adv-x="910" 
d="M88 652h734l-367 -731z" />
    <glyph glyph-name="arrowright" unicode="&#x2192;" horiz-adv-x="910" 
d="M104 314v59h553l-75 127l15 17l208 -173l-208 -173l-15 17l75 126h-553z" />
    <glyph glyph-name="arrowleft" unicode="&#x2190;" horiz-adv-x="910" 
d="M805 373v-59h-553l75 -126l-15 -17l-208 173l208 173l15 -17l-75 -127h553z" />
    <glyph glyph-name="arrowup" unicode="&#x2191;" horiz-adv-x="910" 
d="M484 0h-58v553l-127 -75l-17 15l173 208l173 -208l-17 -15l-127 75v-553z" />
    <glyph glyph-name="arrowdown" unicode="&#x2193;" horiz-adv-x="910" 
d="M426 687h58v-552l127 74l17 -15l-173 -208l-173 208l17 15l127 -74v552z" />
    <glyph glyph-name="arrowboth" unicode="&#x2194;" horiz-adv-x="910" 
d="M207 314l75 -126l-15 -17l-208 173l208 173l15 -17l-75 -127h496l-75 127l15 17l208 -173l-208 -173l-15 17l75 126h-496z" />
    <glyph glyph-name="uni3013" unicode="&#x3013;" horiz-adv-x="910" 
d="M779 233v-38h-648v38h648zM779 429v-38h-648v38h648z" />
    <glyph glyph-name="guillemotleft" unicode="&#xab;" horiz-adv-x="910" 
d="M375 303l441 -288l-30 -49l-482 314v45l474 323l35 -47zM165 302l441 -290l-32 -50l-480 318v45l473 328l35 -49z" />
    <glyph glyph-name="guillemotright" unicode="&#xbb;" horiz-adv-x="910" 
d="M606 325v-45l-482 -314l-30 49l441 288c-143 97 -296 202 -438 298l35 47zM816 325v-45l-480 -318l-32 50l441 290c-142 98 -295 205 -437 302l35 49z" />
    <glyph glyph-name="radical" unicode="&#x221a;" horiz-adv-x="550" 
d="M568 800l-231 -923h-51l-161 433l-73 -32l-17 41l126 52l129 -360c7 -19 14 -42 17 -58h1c3 16 8 39 13 58l192 789h55z" />
    <glyph glyph-name="uni223D" unicode="&#x223d;" horiz-adv-x="910" 
d="M829 316c0 -101 -76 -189 -182 -189c-43 0 -83 16 -122 44l33 49c29 -22 56 -31 89 -31c69 0 118 55 118 127c0 63 -47 125 -117 125c-73 0 -117 -49 -162 -134c-32 -62 -91 -179 -225 -179c-89 0 -180 64 -180 188c0 120 88 187 179 187c45 0 87 -18 124 -42l-32 -50
c-28 16 -57 28 -85 28c-73 0 -121 -51 -121 -123c0 -74 44 -124 120 -124c99 0 147 100 176 157c40 80 103 154 204 154c107 0 183 -89 183 -187z" />
    <glyph glyph-name="proportional" unicode="&#x221d;" horiz-adv-x="910" 
d="M301 192c82 0 129 66 158 123c-29 55 -79 124 -158 124c-73 0 -120 -52 -120 -123c0 -75 43 -124 120 -124zM795 460l-34 -51c-27 18 -55 32 -81 32c-72 0 -114 -46 -157 -126c43 -81 85 -126 157 -126c23 0 55 9 79 22l21 -56c-34 -19 -68 -28 -100 -28
c-86 0 -150 62 -190 127c-35 -59 -86 -126 -190 -126c-90 0 -186 63 -186 188c0 120 93 187 185 187c101 0 155 -68 191 -128c40 69 101 128 190 128c39 0 78 -16 115 -43z" />
    <glyph glyph-name="uni2235" unicode="&#x2235;" horiz-adv-x="586" 
d="M49 505c0 32 25 57 57 57c31 0 57 -25 57 -57s-26 -56 -57 -56c-32 0 -57 24 -57 56zM429 505c0 32 25 57 57 57c31 0 57 -25 57 -57s-26 -56 -57 -56c-32 0 -57 24 -57 56zM239 110c0 31 25 58 57 58c31 0 57 -27 57 -58s-26 -56 -57 -56c-32 0 -57 25 -57 56z" />
    <glyph glyph-name="integral" unicode="&#x222b;" horiz-adv-x="303" 
d="M292 784l-11 -48c-8 2 -18 4 -28 4c-17 0 -34 -6 -46 -20c-21 -26 -29 -67 -29 -158c0 -144 11 -334 11 -479c0 -102 -22 -159 -47 -189c-20 -25 -50 -40 -84 -40c-21 0 -41 5 -49 10l10 47c9 -2 20 -5 35 -5c16 0 32 6 45 20c17 22 30 57 30 158c0 146 -11 340 -11 482
c0 98 17 154 52 190c22 24 50 35 81 35c17 0 32 -3 41 -7z" />
    <glyph glyph-name="uni222C" unicode="&#x222c;" horiz-adv-x="521" 
d="M292 784l-11 -48c-8 2 -18 4 -28 4c-17 0 -34 -6 -46 -20c-21 -26 -29 -67 -29 -158c0 -144 11 -334 11 -479c0 -102 -22 -159 -47 -189c-20 -25 -50 -40 -84 -40c-21 0 -41 5 -49 10l10 47c9 -2 20 -5 35 -5c16 0 32 6 45 20c17 22 30 57 30 158c0 146 -11 340 -11 482
c0 98 17 154 52 190c22 24 50 35 81 35c17 0 32 -3 41 -7zM510 784l-11 -48c-8 2 -18 4 -28 4c-17 0 -34 -6 -46 -20c-21 -26 -29 -67 -29 -158c0 -144 11 -334 11 -479c0 -102 -22 -159 -47 -189c-20 -25 -50 -40 -84 -40c-21 0 -41 5 -49 10l10 47c9 -2 20 -5 35 -5
c16 0 32 6 45 20c17 22 30 57 30 158c0 146 -11 340 -11 482c0 98 17 154 52 190c22 24 50 35 81 35c17 0 32 -3 41 -7z" />
    <glyph glyph-name="element" unicode="&#x2208;" horiz-adv-x="910" 
d="M795 358v-60h-617c11 -91 74 -156 215 -156h404v-60h-399c-197 0 -286 110 -286 247c0 128 83 233 281 233h404v-60h-404c-141 0 -202 -64 -214 -144h616z" />
    <glyph glyph-name="suchthat" unicode="&#x220b;" horiz-adv-x="910" 
d="M114 298v60h615c-12 80 -72 144 -213 144h-404v60h404c198 0 281 -105 281 -233c0 -137 -89 -247 -286 -247h-399v60h404c141 0 204 65 214 156h-616z" />
    <glyph glyph-name="reflexsubset" unicode="&#x2286;" horiz-adv-x="910" 
d="M797 622v-60h-404c-159 0 -216 -74 -216 -166c0 -102 61 -174 216 -174h404v-60h-399c-197 0 -286 103 -286 237c0 125 83 223 281 223h404zM795 62v-60h-646v60h646z" />
    <glyph glyph-name="reflexsuperset" unicode="&#x2287;" horiz-adv-x="910" 
d="M112 562v60h404c198 0 281 -98 281 -223c0 -134 -89 -237 -286 -237h-399v60h404c155 0 216 72 216 174c0 92 -57 166 -216 166h-404zM114 2v60h646v-60h-646z" />
    <glyph glyph-name="propersubset" unicode="&#x2282;" horiz-adv-x="910" 
d="M797 552v-60h-404c-159 0 -216 -81 -216 -176c0 -105 61 -184 216 -184h404v-60h-399c-197 0 -286 110 -286 247c0 128 83 233 281 233h404z" />
    <glyph glyph-name="propersuperset" unicode="&#x2283;" horiz-adv-x="910" 
d="M112 502v60h404c198 0 281 -105 281 -233c0 -137 -89 -247 -286 -247h-399v60h404c155 0 216 79 216 184c0 95 -57 176 -216 176h-404z" />
    <glyph glyph-name="union" unicode="&#x222a;" horiz-adv-x="910" 
d="M211 635h64v-404c0 -159 81 -220 176 -220c105 0 184 65 184 220v404h64v-399c0 -197 -114 -286 -251 -286c-128 0 -237 83 -237 281v404z" />
    <glyph glyph-name="intersection" unicode="&#x2229;" horiz-adv-x="910" 
d="M455 635c138 0 243 -89 243 -286v-399h-64v404c0 155 -74 223 -179 223s-179 -68 -179 -223v-404h-64v399c0 197 105 286 243 286z" />
    <glyph glyph-name="logicaland" unicode="&#x2227;" horiz-adv-x="910" 
d="M482 591l294 -569l-54 -26l-267 514c-87 -168 -181 -346 -267 -514l-54 26l294 569h54z" />
    <glyph glyph-name="logicalor" unicode="&#x2228;" horiz-adv-x="910" 
d="M722 598l54 -27l-294 -568h-54l-294 568l54 27l267 -515c87 168 181 346 267 515z" />
    <glyph glyph-name="uniFFE2" unicode="&#xffe2;" horiz-adv-x="910" 
d="M883 158v-313h-59v256h-797v57h856z" />
    <glyph glyph-name="arrowdblright" unicode="&#x21d2;" horiz-adv-x="910" 
d="M649 557l256 -257l-256 -258l-33 32l115 114h-726v44h769l69 68c-23 24 -46 45 -69 69h-769v44h725l-114 112z" />
    <glyph glyph-name="arrowdblboth" unicode="&#x21d4;" horiz-adv-x="910" 
d="M650 557l256 -257l-256 -258l-33 32l115 114h-555l115 -114l-33 -32l-256 258l256 257l33 -32l-114 -112h553l-114 112zM775 232l69 68c-23 24 -46 45 -69 69h-641c-24 -25 -44 -43 -69 -69l69 -68h641z" />
    <glyph glyph-name="universal" unicode="&#x2200;" horiz-adv-x="910" 
d="M415 -26l-267 721h75l80 -224h305l82 224h72l-268 -721h-79zM455 36c27 94 41 130 59 179l71 195h-260l70 -195c18 -49 31 -85 60 -179z" />
    <glyph glyph-name="existential" unicode="&#x2203;" horiz-adv-x="910" 
d="M241 695h434v-721h-441v62h371v277h-343v62h343v258h-364v62z" />
    <glyph glyph-name="acute" unicode="&#xb4;" horiz-adv-x="600" 
d="M270 568h-64l105 141h83z" />
    <glyph glyph-name="tilde" unicode="&#x2dc;" horiz-adv-x="600" 
d="M156 586c8 64 47 94 87 94c47 0 81 -39 114 -39c20 0 36 14 41 40h46c-7 -64 -47 -94 -87 -94c-47 0 -81 39 -114 39c-20 0 -35 -15 -40 -40h-47z" />
    <glyph glyph-name="caron" unicode="&#x2c7;" horiz-adv-x="600" 
d="M431 702l-102 -139h-59l-101 139h55l77 -88l74 88h56z" />
    <glyph glyph-name="breve" unicode="&#x2d8;" horiz-adv-x="600" 
d="M300 565c-74 0 -126 49 -130 123h52c6 -45 33 -72 78 -72c46 0 72 27 78 72h52c-3 -74 -56 -123 -130 -123z" />
    <glyph glyph-name="hungarumlaut" unicode="&#x2dd;" horiz-adv-x="600" 
d="M166 568l53 141h72l-68 -141h-57zM310 568l53 141h72l-68 -141h-57z" />
    <glyph glyph-name="ring" unicode="&#x2da;" horiz-adv-x="910" 
d="M455 556c-55 0 -93 42 -93 91c0 47 38 89 93 89c54 0 93 -42 93 -89c0 -49 -39 -91 -93 -91zM455 594c30 0 49 22 49 53c0 29 -19 50 -49 50c-31 0 -50 -21 -50 -50c0 -31 19 -53 50 -53z" />
    <glyph glyph-name="dotaccent" unicode="&#x2d9;" horiz-adv-x="600" 
d="M265 595v73h69v-73h-69z" />
    <glyph glyph-name="cedilla" unicode="&#xb8;" horiz-adv-x="600" 
d="M216 -197v44c77 6 110 14 110 42s-27 34 -88 34v85h48v-46c58 -3 98 -21 98 -67c0 -58 -44 -84 -168 -92z" />
    <glyph glyph-name="ogonek" unicode="&#x2db;" horiz-adv-x="600" 
d="M325 -196c-67 0 -102 24 -102 74c0 57 50 90 86 113h56c-45 -35 -81 -64 -81 -104c0 -33 20 -37 56 -37c15 0 27 2 36 6v-43c-12 -4 -30 -9 -51 -9z" />
    <glyph glyph-name="exclamdown" unicode="&#xa1;" horiz-adv-x="280" 
d="M188 714v-98h-96v98h96zM111 512h58l12 -566h-82z" />
    <glyph glyph-name="questiondown" unicode="&#xbf;" horiz-adv-x="520" 
d="M323 706v-98h-96v98h96zM241 511h68v-47c0 -67 -23 -98 -97 -170c-47 -46 -94 -82 -94 -151v-16c0 -72 53 -117 136 -117c68 0 125 29 166 76l45 -46c-36 -43 -107 -94 -209 -94c-132 0 -210 71 -210 180v17c0 98 67 145 129 204c44 42 66 68 66 120v44z" />
    <glyph glyph-name="uni2236" unicode="&#x2236;" horiz-adv-x="910" 
d="M454 168l85 -94h-168zM371 545h168l-85 -95z" />
    <glyph glyph-name="uni222E" unicode="&#x222e;" horiz-adv-x="910" 
d="M664 649l-47 -21c-11 25 -27 40 -50 40c-29 0 -58 -82 -74 -224c71 -8 129 -58 122 -145c-7 -84 -71 -134 -141 -144c-9 -73 -23 -133 -43 -181c-21 -51 -53 -86 -93 -86s-71 19 -92 59l44 26c12 -25 28 -41 51 -41c29 0 60 81 74 224c-66 11 -119 60 -112 143
c7 80 65 128 130 142c9 74 24 137 44 185c21 51 53 86 93 86c42 0 73 -21 94 -63zM566 299c5 56 -24 104 -76 115c-3 -35 -5 -73 -6 -114s-3 -79 -7 -115c49 12 84 55 89 114zM430 410c-43 -16 -73 -56 -78 -111c-5 -58 21 -100 66 -113c3 35 5 73 6 114c1 39 3 75 6 110z
" />
    <glyph glyph-name="summation" unicode="&#x2211;" horiz-adv-x="579" 
d="M83 695h434v-62h-344l207 -301l-211 -296h355v-62h-441v50l217 307l-217 317v47z" />
    <glyph glyph-name="product" unicode="&#x220f;" horiz-adv-x="637" 
d="M491 634v-660h-70v660h-205v-660h-70v660h-116v61h577v-61h-116z" />
    <glyph glyph-name="currency" unicode="&#xa4;" horiz-adv-x="910" 
d="M684 314c0 130 -106 235 -235 235c-131 0 -235 -105 -235 -235s104 -235 235 -235c129 0 235 105 235 235zM765 618l37 -41l-113 -100c31 -46 49 -102 49 -163c0 -65 -21 -124 -58 -173l121 -108l-36 -41l-121 109c-50 -45 -122 -77 -195 -77c-71 0 -139 27 -188 70
l-117 -102l-36 41l115 101c-39 49 -64 111 -64 180c0 62 20 120 53 168l-105 95l38 41l104 -94c51 49 122 80 200 80c81 0 152 -35 205 -87z" />
    <glyph glyph-name="uni2109" unicode="&#x2109;" horiz-adv-x="800" 
d="M383 -26h-70v721h428v-62h-358v-276h337v-62h-337v-321zM249 622c0 -50 -38 -90 -95 -90s-95 40 -95 90s38 90 95 90s95 -40 95 -90zM105 622c0 -30 19 -52 49 -52s49 22 49 52s-19 52 -49 52s-49 -22 -49 -52z" />
    <glyph glyph-name="perthousand" unicode="&#x2030;" horiz-adv-x="1231" 
d="M251 -25h-64l431 720h63zM644 343c97 0 155 -61 155 -166v-45c0 -105 -58 -166 -155 -166s-155 61 -155 166v45c0 105 58 166 155 166zM644 17c58 0 97 33 97 117v41c0 83 -39 117 -97 117s-97 -34 -97 -117v-41c0 -84 39 -117 97 -117zM225 703c97 0 155 -61 155 -166
v-45c0 -105 -58 -166 -155 -166s-155 61 -155 166v45c0 105 58 166 155 166zM225 377c58 0 97 33 97 117v41c0 83 -39 117 -97 117s-97 -34 -97 -117v-41c0 -84 39 -117 97 -117zM1006 343c97 0 155 -61 155 -166v-45c0 -105 -58 -166 -155 -166s-155 61 -155 166v45
c0 105 58 166 155 166zM1006 17c58 0 97 33 97 117v41c0 83 -39 117 -97 117s-97 -34 -97 -117v-41c0 -84 39 -117 97 -117z" />
    <glyph glyph-name="uni25C1" unicode="&#x25c1;" horiz-adv-x="910" 
d="M209 300l523 -327v656zM764 690v-778l-618 388z" />
    <glyph glyph-name="uni25C0" unicode="&#x25c0;" horiz-adv-x="910" 
d="M764 690v-778l-618 388z" />
    <glyph glyph-name="uni25B7" unicode="&#x25b7;" horiz-adv-x="910" 
d="M178 -27l523 327l-523 329v-656zM146 690l618 -390l-618 -388v778z" />
    <glyph glyph-name="uni25B6" unicode="&#x25b6;" horiz-adv-x="910" 
d="M146 690l618 -390l-618 -388v778z" />
    <glyph glyph-name="uni2664" unicode="&#x2664;" horiz-adv-x="910" 
d="M738 205c0 101 -166 311 -283 452c-117 -141 -283 -351 -283 -452c0 -48 26 -115 95 -115c59 0 108 55 132 55c27 0 33 -14 30 -47c-3 -44 -14 -93 -33 -153c-3 -12 3 -18 19 -19c12 -1 25 -2 40 -2s28 1 40 2c16 1 22 7 19 19c-19 60 -30 109 -33 153c-3 33 3 47 30 47
c24 0 73 -55 132 -55c69 0 95 67 95 115zM782 201c0 -87 -55 -151 -139 -151c-39 0 -72 18 -123 47c3 -50 25 -137 52 -188c6 -13 1 -20 -14 -22c-27 -3 -68 -5 -103 -5c-39 0 -75 2 -103 5c-15 2 -20 9 -14 22c27 56 47 135 52 188c-51 -29 -84 -47 -123 -47
c-84 0 -139 64 -139 151c0 117 175 330 327 520c152 -190 327 -403 327 -520z" />
    <glyph glyph-name="spade" unicode="&#x2660;" horiz-adv-x="910" 
d="M782 201c0 -87 -55 -151 -139 -151c-39 0 -72 18 -123 47c3 -50 25 -137 52 -188c6 -13 1 -20 -14 -22c-27 -3 -68 -5 -103 -5c-39 0 -75 2 -103 5c-15 2 -20 9 -14 22c27 56 47 135 52 188c-51 -29 -84 -47 -123 -47c-84 0 -139 64 -139 151c0 117 175 330 327 520
c152 -190 327 -403 327 -520z" />
    <glyph glyph-name="uni2661" unicode="&#x2661;" horiz-adv-x="910" 
d="M760 470c0 92 -49 161 -153 161c-64 0 -98 -72 -114 -125c-7 -25 -15 -52 -38 -52s-31 27 -38 52c-16 53 -53 125 -114 125c-104 0 -153 -69 -153 -161c0 -157 176 -372 305 -505c129 133 305 348 305 505zM805 477c0 -191 -206 -432 -350 -571
c-144 139 -350 380 -350 571c0 112 79 196 177 196c85 0 144 -52 173 -180c29 128 88 180 173 180c98 0 177 -84 177 -196z" />
    <glyph glyph-name="heart" unicode="&#x2665;" horiz-adv-x="910" 
d="M805 477c0 -191 -206 -432 -350 -571c-144 139 -350 380 -350 571c0 112 79 196 177 196c85 0 144 -52 173 -180c29 128 88 180 173 180c98 0 177 -84 177 -196z" />
    <glyph glyph-name="uni2667" unicode="&#x2667;" horiz-adv-x="910" 
d="M809 212c0 67 -46 140 -121 140c-69 0 -114 -52 -151 -52c-33 0 -52 23 -52 55c0 61 107 72 107 197c0 78 -67 122 -137 122c-68 0 -137 -44 -137 -122c0 -125 107 -136 107 -197c0 -32 -19 -55 -52 -55c-37 0 -82 52 -151 52c-75 0 -121 -73 -121 -140
c0 -73 46 -143 126 -143c102 0 136 94 181 94c15 0 17 -8 17 -23c0 -55 -31 -104 -31 -205c0 -8 4 -12 13 -13c15 -2 31 -3 48 -3s33 1 48 3c9 1 13 5 13 13c0 101 -31 150 -31 205c0 15 2 23 17 23c43 0 80 -94 181 -94c80 0 126 70 126 143zM854 211
c0 -97 -67 -186 -170 -186c-70 0 -130 49 -160 82c19 -45 39 -130 39 -203c0 -9 -9 -15 -18 -16c-33 -3 -33 -3 -90 -3c-31 0 -57 0 -90 3c-9 1 -18 7 -18 16c0 73 18 158 39 203c-30 -33 -90 -82 -160 -82c-103 0 -170 89 -170 186c0 93 69 179 165 179
c44 0 83 -18 122 -37c11 -5 25 -4 29 3c7 11 -1 22 -8 29c-64 56 -90 95 -90 167c0 99 86 162 181 162s181 -63 181 -162c0 -72 -26 -111 -90 -167c-7 -7 -15 -18 -8 -29c4 -7 18 -8 29 -3c39 19 78 37 122 37c96 0 165 -86 165 -179z" />
    <glyph glyph-name="club" unicode="&#x2663;" horiz-adv-x="910" 
d="M854 211c0 -97 -67 -186 -170 -186c-70 0 -130 49 -160 82c19 -45 39 -130 39 -203c0 -9 -9 -15 -18 -16c-33 -3 -33 -3 -90 -3c-31 0 -57 0 -90 3c-9 1 -18 7 -18 16c0 73 18 158 39 203c-30 -33 -90 -82 -160 -82c-103 0 -170 89 -170 186c0 93 69 179 165 179
c44 0 83 -18 122 -37c11 -5 25 -4 29 3c7 11 -1 22 -8 29c-64 56 -90 95 -90 167c0 99 86 162 181 162s181 -63 181 -162c0 -72 -26 -111 -90 -167c-7 -7 -15 -18 -8 -29c4 -7 18 -8 29 -3c39 19 78 37 122 37c96 0 165 -86 165 -179z" />
    <glyph glyph-name="uni25C9" unicode="&#x25c9;" horiz-adv-x="910" 
d="M610 299c0 -86 -69 -155 -155 -155c-84 0 -155 69 -155 155s71 155 155 155c86 0 155 -69 155 -155zM806 299c0 192 -159 351 -351 351s-350 -159 -350 -351s158 -350 350 -350s351 158 351 350zM845 299c0 -216 -174 -390 -390 -390c-213 0 -390 174 -390 390
s177 390 390 390c216 0 390 -174 390 -390z" />
    <glyph glyph-name="uni25C8" unicode="&#x25c8;" horiz-adv-x="910" 
d="M455 565l268 -268l-268 -268l-269 268zM454 -87l385 385l-384 383l-385 -384zM455 732l434 -434l-435 -434l-433 433z" />
    <glyph glyph-name="uni25A3" unicode="&#x25a3;" horiz-adv-x="910" 
d="M685 527v-460h-460v460h460zM121 -36h668v667h-668v-667zM827 669v-743h-744v743h744z" />
    <glyph glyph-name="uni25D0" unicode="&#x25d0;" horiz-adv-x="910" 
d="M806 299c0 192 -159 351 -351 351v-701c192 0 351 158 351 350zM845 299c0 -216 -174 -390 -390 -390c-213 0 -390 174 -390 390s177 390 390 390c216 0 390 -174 390 -390z" />
    <glyph glyph-name="uni25D1" unicode="&#x25d1;" horiz-adv-x="910" 
d="M455 -51v701c-192 0 -351 -159 -351 -351s159 -350 351 -350zM845 299c0 -216 -177 -390 -390 -390c-216 0 -390 174 -390 390s174 390 390 390c213 0 390 -174 390 -390z" />
    <glyph glyph-name="shade" unicode="&#x2592;" horiz-adv-x="910" 
d="M199 19c0 -15 -9 -26 -24 -26s-26 11 -26 26s11 25 26 25c16 0 24 -8 24 -25zM293 19c0 -15 -12 -26 -25 -26c-15 0 -26 11 -26 26s11 25 26 25c13 0 25 -10 25 -25zM199 113c0 -15 -9 -26 -24 -26s-26 11 -26 26c0 13 11 24 26 24s24 -11 24 -24zM293 113
c0 -15 -12 -26 -25 -26c-15 0 -26 11 -26 26c0 13 11 24 26 24c13 0 25 -11 25 -24zM387 19c0 -15 -11 -26 -26 -26s-25 11 -25 26c0 17 8 25 25 25c15 0 26 -10 26 -25zM199 206c0 -15 -9 -26 -24 -26s-26 11 -26 26s11 26 26 26s24 -11 24 -26zM387 113
c0 -15 -11 -26 -26 -26s-25 11 -25 26c0 13 10 24 25 24s26 -11 26 -24zM293 206c0 -15 -12 -26 -25 -26c-15 0 -26 11 -26 26s11 26 26 26c13 0 25 -11 25 -26zM480 19c0 -15 -10 -26 -25 -26c-13 0 -25 11 -25 26s12 25 25 25c17 0 25 -8 25 -25zM199 300
c0 -13 -9 -25 -24 -25s-26 12 -26 25c0 15 11 25 26 25c16 0 24 -8 24 -25zM480 113c0 -15 -10 -26 -25 -26c-13 0 -25 11 -25 26c0 13 12 24 25 24c15 0 25 -11 25 -24zM387 206c0 -15 -11 -26 -26 -26s-25 11 -25 26s10 26 25 26s26 -11 26 -26zM293 300
c0 -13 -12 -25 -25 -25c-15 0 -26 12 -26 25c0 15 11 25 26 25c13 0 25 -10 25 -25zM575 19c0 -15 -11 -26 -26 -26s-26 11 -26 26s11 25 26 25s26 -10 26 -25zM199 394c0 -15 -9 -26 -24 -26s-26 11 -26 26s11 26 26 26s24 -11 24 -26zM575 113c0 -15 -11 -26 -26 -26
s-26 11 -26 26c0 13 11 24 26 24s26 -11 26 -24zM480 206c0 -15 -10 -26 -25 -26c-13 0 -25 11 -25 26s12 26 25 26c15 0 25 -11 25 -26zM387 300c0 -13 -11 -25 -26 -25s-25 12 -25 25c0 17 8 25 25 25c15 0 26 -10 26 -25zM293 394c0 -15 -12 -26 -25 -26
c-15 0 -26 11 -26 26s11 26 26 26c13 0 25 -11 25 -26zM668 19c0 -15 -10 -26 -25 -26s-25 11 -25 26c0 17 8 25 25 25s25 -8 25 -25zM199 487c0 -13 -9 -24 -24 -24s-26 11 -26 24c0 15 11 26 26 26s24 -11 24 -26zM762 19c0 -15 -11 -26 -26 -26s-25 11 -25 26
c0 17 8 25 25 25c15 0 26 -10 26 -25zM668 113c0 -15 -10 -26 -25 -26s-25 11 -25 26c0 13 10 24 25 24s25 -11 25 -24zM575 206c0 -15 -11 -26 -26 -26s-26 11 -26 26s11 26 26 26s26 -11 26 -26zM480 300c0 -13 -10 -25 -25 -25c-13 0 -25 12 -25 25c0 15 12 25 25 25
c17 0 25 -8 25 -25zM387 394c0 -15 -11 -26 -26 -26s-25 11 -25 26s10 26 25 26s26 -11 26 -26zM293 487c0 -13 -12 -24 -25 -24c-15 0 -26 11 -26 24c0 15 11 26 26 26c13 0 25 -11 25 -26zM199 581c0 -17 -8 -25 -24 -25c-15 0 -26 10 -26 25s11 26 26 26s24 -11 24 -26z
M762 113c0 -15 -11 -26 -26 -26s-25 11 -25 26c0 13 10 24 25 24s26 -11 26 -24zM293 581c0 -15 -12 -25 -25 -25c-15 0 -26 10 -26 25s11 26 26 26c13 0 25 -11 25 -26zM668 206c0 -15 -10 -26 -25 -26s-25 11 -25 26s10 26 25 26s25 -11 25 -26zM575 300
c0 -13 -11 -25 -26 -25s-26 12 -26 25c0 15 11 25 26 25s26 -10 26 -25zM480 394c0 -15 -10 -26 -25 -26c-13 0 -25 11 -25 26s12 26 25 26c15 0 25 -11 25 -26zM387 487c0 -13 -11 -24 -26 -24s-25 11 -25 24c0 15 10 26 25 26s26 -11 26 -26zM762 206
c0 -15 -11 -26 -26 -26s-25 11 -25 26s10 26 25 26s26 -11 26 -26zM387 581c0 -15 -11 -25 -26 -25c-17 0 -25 8 -25 25c0 15 10 26 25 26s26 -11 26 -26zM668 300c0 -13 -10 -25 -25 -25s-25 12 -25 25c0 17 8 25 25 25s25 -8 25 -25zM575 394c0 -15 -11 -26 -26 -26
s-26 11 -26 26s11 26 26 26s26 -11 26 -26zM480 487c0 -13 -10 -24 -25 -24c-13 0 -25 11 -25 24c0 15 12 26 25 26c15 0 25 -11 25 -26zM762 300c0 -13 -11 -25 -26 -25s-25 12 -25 25c0 17 8 25 25 25c15 0 26 -10 26 -25zM480 581c0 -17 -8 -25 -25 -25
c-13 0 -25 10 -25 25s12 26 25 26c15 0 25 -11 25 -26zM668 394c0 -15 -10 -26 -25 -26s-25 11 -25 26s10 26 25 26s25 -11 25 -26zM575 487c0 -13 -11 -24 -26 -24s-26 11 -26 24c0 15 11 26 26 26s26 -11 26 -26zM762 394c0 -15 -11 -26 -26 -26s-25 11 -25 26
s10 26 25 26s26 -11 26 -26zM575 581c0 -15 -11 -25 -26 -25s-26 10 -26 25s11 26 26 26s26 -11 26 -26zM668 487c0 -13 -10 -24 -25 -24s-25 11 -25 24c0 15 10 26 25 26s25 -11 25 -26zM762 487c0 -13 -11 -24 -26 -24s-25 11 -25 24c0 15 10 26 25 26s26 -11 26 -26z
M668 581c0 -17 -8 -25 -25 -25s-25 8 -25 25c0 15 10 26 25 26s25 -11 25 -26zM762 581c0 -15 -11 -25 -26 -25c-17 0 -25 8 -25 25c0 15 10 26 25 26s26 -11 26 -26zM116 -41h678v677h-678v-677zM827 669v-743h-744v743h744z" />
    <glyph glyph-name="uni25A4" unicode="&#x25a4;" horiz-adv-x="910" 
d="M116 -41h678v67h-678v-67zM116 58h678v68h-678v-68zM116 158h678v72h-678v-72zM116 262h678v71h-678v-71zM116 365h678v66h-678v-66zM116 463h678v73h-678v-73zM116 568h678v68h-678v-68zM827 669v-743h-744v743h744z" />
    <glyph glyph-name="uni25A5" unicode="&#x25a5;" horiz-adv-x="910" 
d="M116 -41h68v677h-68v-677zM216 -41h73v677h-73v-677zM321 -41h66v677h-66v-677zM419 -41h71v677h-71v-677zM522 -41h72v677h-72v-677zM626 -41h68v677h-68v-677zM726 -41h68v677h-68v-677zM827 669v-743h-744v743h744z" />
    <glyph glyph-name="uni25A8" unicode="&#x25a8;" horiz-adv-x="910" 
d="M116 -17l653 653h-117l-536 -535v-118zM116 149l488 487h-118l-370 -369v-118zM116 315l322 321h-119l-203 -202v-119zM116 482l155 154h-155v-154zM638 -41h156v156zM590 -41l204 204v118l-322 -322h118zM424 -41l370 370v118l-488 -488h118zM258 -41l536 536v118
l-654 -654h118zM827 669v-743h-744v743h744z" />
    <glyph glyph-name="uni25A7" unicode="&#x25a7;" horiz-adv-x="910" 
d="M116 -41h156l-156 156v-156zM320 -41h118l-322 322v-118zM486 -41h118l-488 488v-118zM652 -41h118l-654 654v-118zM141 636l653 -653v118l-536 535h-117zM306 636l488 -487v118l-370 369h-118zM472 636l322 -321v119l-203 202h-119zM639 636l155 -154v154h-155zM827 669
v-743h-744v743h744z" />
    <glyph glyph-name="uni25A6" unicode="&#x25a6;" horiz-adv-x="910" 
d="M116 -41h71v71h-71v-71zM116 60h71v71h-71v-71zM217 -41h71v71h-71v-71zM217 60h71v71h-71v-71zM116 161h71v71h-71v-71zM318 -41h71v71h-71v-71zM318 60h71v71h-71v-71zM217 161h71v71h-71v-71zM116 262h71v71h-71v-71zM419 -41h71v71h-71v-71zM419 60h71v71h-71v-71z
M318 161h71v71h-71v-71zM217 262h71v71h-71v-71zM116 363h71v71h-71v-71zM520 -41h71v71h-71v-71zM520 60h71v71h-71v-71zM419 161h71v71h-71v-71zM318 262h71v71h-71v-71zM217 363h71v71h-71v-71zM116 464h71v71h-71v-71zM621 -41h71v71h-71v-71zM621 60h71v71h-71v-71z
M520 161h71v71h-71v-71zM419 262h71v71h-71v-71zM318 363h71v71h-71v-71zM217 464h71v71h-71v-71zM116 565h71v71h-71v-71zM723 -41h71v71h-71v-71zM621 161h71v71h-71v-71zM520 262h71v71h-71v-71zM419 363h71v71h-71v-71zM318 464h71v71h-71v-71zM217 565h71v71h-71v-71z
M723 60h71v71h-71v-71zM621 262h71v71h-71v-71zM520 363h71v71h-71v-71zM419 464h71v71h-71v-71zM318 565h71v71h-71v-71zM723 161h71v71h-71v-71zM621 363h71v71h-71v-71zM520 464h71v71h-71v-71zM419 565h71v71h-71v-71zM723 262h71v71h-71v-71zM621 464h71v71h-71v-71z
M520 565h71v71h-71v-71zM723 363h71v71h-71v-71zM621 565h71v71h-71v-71zM723 464h71v71h-71v-71zM723 565h71v71h-71v-71zM827 669v-743h-744v743h744z" />
    <glyph glyph-name="uni25A9" unicode="&#x25a9;" horiz-adv-x="910" 
d="M137 -41h135l-68 68zM116 -13l64 64l-64 64v-128zM296 -17l58 60l-67 67l-59 -59zM204 75l59 59l-64 64l-59 -59zM319 -41h119l-59 59zM116 164l59 58l-59 59v-117zM462 -17l59 59l-59 59l-59 -59zM378 66l60 59l-67 68l-60 -59zM287 158l59 59l-64 64l-59 -59zM199 246
l59 59l-59 59l-59 -59zM116 329l59 59l-59 59v-118zM486 -41h118l-59 59zM628 -17l59 59l-59 59l-59 -59zM545 66l59 59l-59 59l-59 -59zM371 241l58 58l-64 65l-59 -59zM282 329l59 59l-59 59l-59 -59zM199 412l59 59l-59 59l-59 -59zM461 150l60 58l-67 68l-59 -60z
M116 495l59 59l-59 59v-118zM652 -41h118l-59 59zM735 42l59 -59v118zM199 578l59 58h-117zM366 411l58 59l-60 59l-58 -58zM711 66l59 59l-59 59l-59 -59zM628 149l59 59l-60 59l-58 -58zM454 323l58 59l-64 64l-58 -59zM282 495l59 58l-60 60l-58 -59zM544 233l60 58
l-68 67l-58 -59zM735 208l59 -59v118zM365 577l59 59h-118zM711 232l59 59l-60 59l-59 -59zM627 315l59 60l-66 66l-59 -59zM537 406l59 59l-65 63l-59 -58zM448 494l60 59l-60 59l-59 -59zM734 374l60 -60v120zM532 576l60 60h-120zM620 488l59 60l-64 64l-60 -59zM710 398
l60 60l-66 67l-61 -60zM703 572l65 64h-129zM727 548l67 -66v133zM827 669v-743h-744v743h744z" />
    <glyph glyph-name="uni2668" unicode="&#x2668;" horiz-adv-x="910" 
d="M853 101c0 -123 -183 -209 -393 -209c-211 0 -404 75 -404 182s153 160 208 176c15 5 19 -12 2 -18c-11 -5 -137 -58 -137 -138c0 -68 172 -102 332 -102c159 0 331 47 331 123c0 55 -79 99 -115 110c-16 5 -9 19 4 16c39 -5 172 -51 172 -140zM383 261
c4 -40 -22 -101 -55 -165c-17 -32 -23 -50 -24 -62c-1 -11 -10 -12 -17 0c-8 17 -16 54 -1 97c14 38 37 141 7 214c-38 91 -18 176 22 250c11 19 19 41 23 60c3 11 11 9 14 1c7 -20 13 -70 -10 -150c-16 -58 30 -145 41 -245zM525 286c11 -59 -43 -151 -62 -189
c-20 -37 -29 -60 -30 -73c-1 -12 -13 -10 -17 -1c-9 21 -15 67 8 123c40 93 9 195 -1 217c-53 123 -6 188 21 244c19 39 23 72 23 93c0 15 10 13 15 2c13 -29 27 -98 3 -164c-34 -97 19 -148 40 -252zM657 298c8 -100 -50 -154 -72 -197c-17 -33 -25 -61 -28 -73
c-3 -7 -10 -12 -14 0c-8 19 -9 68 4 99c24 60 55 152 26 221c-45 101 -29 164 0 233c9 23 13 52 13 69c0 12 7 17 14 2c11 -21 23 -67 12 -143c-13 -92 34 -111 45 -211z" />
    <glyph glyph-name="uni260F" unicode="&#x260f;" horiz-adv-x="910" 
d="M602 208c0 81 -66 147 -147 147s-147 -66 -147 -147s66 -146 147 -146s147 65 147 146zM625 208c0 -93 -77 -170 -170 -170s-170 77 -170 170s77 170 170 170s170 -77 170 -170zM122 0h666c8 0 12 51 -11 64c0 33 -9 106 -45 140c-62 59 -87 80 -106 129
c-25 68 -30 128 -26 171h-47v-84h-196v84h-47c4 -43 -1 -103 -26 -171c-19 -49 -44 -70 -106 -129c-36 -34 -45 -107 -45 -140c-23 -13 -19 -64 -11 -64zM852 338c17 3 24 104 -51 166c-59 48 -241 82 -346 82c-138 0 -287 -34 -346 -82c-77 -61 -66 -163 -51 -166
c52 -5 125 20 162 41c16 11 -22 64 -6 101c11 28 43 45 132 45c14 0 29 -2 46 -5c23 -5 40 -8 63 -8s40 3 63 8c17 3 32 5 46 5c89 0 118 -17 132 -45c16 -37 -22 -90 -6 -101c36 -22 112 -46 162 -41zM377 439h156v65c-19 -5 -49 -10 -78 -10s-59 5 -78 10v-65zM878 328
c-16 -27 -80 -10 -131 3c-41 12 -80 30 -85 54c-6 20 19 60 16 79c-5 27 -30 33 -55 37c-4 -31 -8 -64 11 -127c19 -69 50 -96 92 -130c67 -56 70 -130 70 -169c21 -8 24 -53 21 -80c-1 -12 -14 -16 -34 -16h-656c-20 0 -33 4 -34 16c-3 27 0 72 21 80c0 39 3 113 70 169
c42 34 73 61 92 130c17 63 15 96 11 127c-25 -4 -50 -10 -55 -37c-5 -19 22 -59 16 -79c-5 -24 -44 -42 -85 -54c-51 -13 -115 -30 -131 -3s-9 109 28 156c65 84 235 121 395 121s330 -37 395 -121c37 -47 44 -129 28 -156z" />
    <glyph glyph-name="uni260E" unicode="&#x260e;" horiz-adv-x="910" 
d="M602 208c0 81 -66 147 -147 147s-147 -66 -147 -147s66 -146 147 -146s147 65 147 146zM377 439h156v65c-19 -5 -49 -10 -78 -10s-59 5 -78 10v-65zM878 328c-16 -27 -80 -10 -131 3c-41 12 -80 30 -85 54c-6 20 19 60 16 79c-5 27 -30 33 -55 37c-4 -31 -8 -64 11 -127
c19 -69 50 -96 92 -130c67 -56 70 -130 70 -169c21 -8 24 -53 21 -80c-1 -12 -14 -16 -34 -16h-656c-20 0 -33 4 -34 16c-3 27 0 72 21 80c0 39 3 113 70 169c42 34 73 61 92 130c17 63 15 96 11 127c-25 -4 -50 -10 -55 -37c-5 -19 22 -59 16 -79c-5 -24 -44 -42 -85 -54
c-51 -13 -115 -30 -131 -3s-9 109 28 156c65 84 235 121 395 121s330 -37 395 -121c37 -47 44 -129 28 -156z" />
    <glyph glyph-name="uni261C" unicode="&#x261c;" horiz-adv-x="910" 
d="M847 420v-236h-76v21h-29c-35 -21 -82 -41 -168 -55c-49 -7 -150 -6 -193 0c-24 4 -50 11 -55 33c-3 16 4 25 15 32c-18 0 -37 13 -38 33c-1 15 4 23 11 30c-18 2 -36 10 -36 33c0 29 24 40 82 40l-3 8c-63 2 -97 3 -171 7c-57 3 -124 2 -124 43c0 34 52 35 118 39
c37 3 176 5 287 5c85 0 176 4 245 -59c21 -5 44 -7 60 -6v32h75zM752 217h20v154c-10 -1 -32 0 -44 3l2 -8c2 -13 0 -13 -7 -5c-11 13 -30 30 -58 49c-41 27 -149 32 -185 27c-19 -2 -47 -12 -66 -24c-10 -6 -16 -16 -22 -27c-5 -11 -11 -19 -19 -24c-5 -7 3 -16 31 -5
c27 10 42 39 48 32c4 -4 1 -10 -4 -15c10 -4 31 -6 41 -4c27 7 40 21 42 16c2 -6 -4 -16 -14 -23c8 -12 37 -38 79 -52c53 -18 92 -10 92 -22c0 -9 -55 -4 -87 5c-55 18 -89 52 -100 67c-6 -4 -16 -4 -23 -4c-19 1 -35 5 -42 7l-15 -13c35 0 61 -9 65 -25
c5 -18 -1 -33 -11 -41c19 -5 29 -14 31 -28c2 -18 -5 -25 -15 -32c18 -4 30 -13 32 -28c3 -20 -11 -32 -13 -33c9 -2 22 -2 35 0c104 9 160 35 202 62c4 4 8 4 7 -1zM429 437c-65 0 -158 -2 -248 -4c-64 -2 -102 -4 -102 -24c0 -21 28 -22 102 -27c83 -4 132 -7 187 -8
l21 32c10 14 22 25 40 31zM787 200h44v203h-44v-203zM490 247c1 20 -8 25 -28 28c-18 2 -95 1 -119 0c-13 -1 -23 -12 -23 -25c0 -9 7 -17 25 -20c14 -3 112 -4 114 -3c13 0 30 6 31 20zM507 194c-1 14 -19 18 -31 18c-36 1 -84 1 -113 -1c-14 -1 -20 -13 -18 -24
c1 -8 7 -16 18 -18c35 -7 81 -7 114 -4c22 1 32 11 30 29zM467 316c0 8 -5 16 -20 17c-49 3 -92 5 -134 0c-13 -2 -20 -12 -19 -22c0 -9 7 -19 20 -19c41 -2 104 -1 134 2c11 2 19 7 19 22z" />
    <glyph glyph-name="uni261E" unicode="&#x261e;" horiz-adv-x="910" 
d="M847 409c0 -41 -67 -40 -124 -43c-74 -4 -108 -5 -171 -7l-3 -8c58 0 82 -11 82 -40c0 -23 -18 -31 -36 -33c7 -7 12 -15 11 -30c-1 -20 -20 -33 -38 -33c11 -7 18 -16 15 -32c-5 -22 -31 -29 -55 -33c-43 -6 -144 -7 -193 0c-86 14 -133 34 -168 55h-29v-21h-76v236h75
v-32c16 -1 39 1 60 6c69 63 160 59 245 59c111 0 250 -2 287 -5c66 -4 118 -5 118 -39zM536 362c-8 5 -14 13 -19 24c-6 11 -12 21 -22 27c-19 12 -47 22 -66 24c-36 5 -144 0 -185 -27c-28 -19 -47 -36 -58 -49c-7 -8 -9 -8 -7 5l2 8c-12 -3 -34 -4 -44 -3v-154h20l-2 8
c-2 6 3 4 7 1c42 -27 98 -53 202 -62c13 -2 25 -2 34 0c-1 0 -16 12 -12 33c2 15 14 24 32 28c-10 7 -17 14 -15 32c3 14 12 23 31 28c-10 8 -16 23 -11 41c5 16 30 25 65 25l-15 13c-7 -2 -23 -6 -42 -7c-7 0 -17 0 -23 4c-11 -15 -45 -49 -100 -67c-32 -9 -87 -14 -87 -5
c0 12 39 4 92 22c42 14 71 40 79 52c-10 7 -16 17 -14 23c2 5 15 -9 42 -16c10 -2 31 0 41 4c-5 5 -8 11 -4 15c6 7 21 -22 48 -32c28 -11 36 -2 31 5zM830 409c0 20 -38 22 -102 24c-90 2 -183 4 -248 4c18 -6 30 -17 40 -31l21 -32c55 1 104 4 187 8c74 5 102 6 102 27z
M78 200h44v203h-44v-203zM589 250c0 13 -10 24 -23 25c-24 1 -101 2 -119 0c-19 -3 -29 -8 -28 -28c1 -14 18 -20 31 -20c2 -1 100 0 114 3c18 3 25 11 25 20zM564 187c2 11 -4 23 -18 24c-29 2 -77 2 -113 1c-12 0 -30 -4 -31 -18c-2 -18 8 -28 30 -29c33 -3 79 -3 114 4
c11 2 17 10 18 18zM615 311c1 10 -6 20 -19 22c-42 5 -85 3 -134 0c-15 -1 -20 -9 -20 -17c0 -15 8 -20 19 -22c30 -3 93 -4 134 -2c13 0 20 10 20 19z" />
    <glyph glyph-name="paragraph" unicode="&#xb6;" horiz-adv-x="579" 
d="M291 -122v474h-55c-102 0 -198 59 -198 181c0 99 55 183 223 183h232v-838h-50v794h-101v-794h-51z" />
    <glyph glyph-name="dagger" unicode="&#x2020;" horiz-adv-x="494" 
d="M215 -91v522h-162v58h162v204h63v-204h163v-58h-163v-522h-63z" />
    <glyph glyph-name="daggerdbl" unicode="&#x2021;" horiz-adv-x="494" 
d="M53 113v58h162v260h-162v58h162v204h63v-204h163v-58h-163v-260h163v-58h-163v-204h-63v204h-162z" />
    <glyph glyph-name="arrowupdn" unicode="&#x2195;" horiz-adv-x="910" 
d="M611 478l-127 75v-418l127 74l17 -15l-173 -208l-173 208l17 15l127 -74v418l-127 -75l-17 15l173 208l173 -208z" />
    <glyph glyph-name="uni2197" unicode="&#x2197;" horiz-adv-x="910" 
d="M142 -11l-41 42l581 581l-142 36l-1 23l269 25l-25 -269l-23 1l-36 142z" />
    <glyph glyph-name="uni2199" unicode="&#x2199;" horiz-adv-x="910" 
d="M768 698l41 -41l-582 -581l142 -37l2 -23l-270 -25l25 270l23 -2l37 -142z" />
    <glyph glyph-name="uni2196" unicode="&#x2196;" horiz-adv-x="910" 
d="M808 31l-41 -42l-582 581l-36 -142l-23 -1l-25 269l269 -25l-1 -23l-142 -36z" />
    <glyph glyph-name="uni2198" unicode="&#x2198;" horiz-adv-x="910" 
d="M101 657l41 41l582 -581l37 142l23 2l25 -270l-270 25l2 23l142 37z" />
    <glyph glyph-name="uni266D" unicode="&#x266d;" horiz-adv-x="517" 
d="M418 266c0 -226 -185 -284 -319 -291v665h63v-328c15 42 50 95 140 95c64 0 116 -55 116 -141zM342 229h1c0 71 -28 127 -72 127c-75 0 -109 -71 -109 -118v-214c78 6 180 59 180 205z" />
    <glyph glyph-name="uni2669" unicode="&#x2669;" horiz-adv-x="388" 
d="M288 662v-547c0 -57 -6 -91 -35 -125c-36 -43 -103 -78 -139 -37s2 106 51 135c26 15 53 24 85 29v545h38z" />
    <glyph glyph-name="musicalnote" unicode="&#x266a;" horiz-adv-x="539" 
d="M479 339c0 -40 -11 -82 -39 -125c-26 -40 -71 -82 -107 -103c-15 -9 -20 2 -10 12c35 34 99 102 99 193c0 87 -115 121 -174 139v-340c0 -57 -6 -91 -35 -125c-36 -43 -103 -78 -139 -37s2 106 51 135c26 15 53 24 85 29v500c0 17 0 40 9 40s15 -6 31 -24
c17 -20 34 -40 70 -71c115 -99 159 -162 159 -223z" />
    <glyph glyph-name="uni266C" unicode="&#x266c;" horiz-adv-x="693" 
d="M251 412l347 74v58l-347 -74v-58zM638 645v-454c0 -46 -29 -87 -67 -119c-35 -29 -91 -52 -121 -13c-23 30 8 87 43 113c38 28 69 33 105 38v182l-347 -75v-223c0 -46 -29 -87 -67 -119c-35 -29 -91 -52 -121 -13c-23 30 8 87 43 113c38 28 69 33 105 38v446z" />
    <glyph glyph-name="uni327F" unicode="&#x327f;" horiz-adv-x="910" 
d="M880 301c0 -232 -171 -425 -426 -425c-215 0 -370 140 -414 331l78 1c40 -153 157 -261 336 -261c206 0 343 147 353 333h-175v72h245c2 -17 3 -34 3 -51zM853 442h-79c-54 126 -160 213 -320 213c-193 0 -321 -130 -349 -303h122v-72h-197v21c0 231 172 424 424 424
c199 0 336 -114 399 -283zM670 532l-178 -182l186 -267h-100l-141 210l-64 -65v-145h-80v449h80v-207l194 207h103z" />
    <glyph glyph-name="uni321C" unicode="&#x321c;" horiz-adv-x="910" 
d="M97 324v-50c0 -152 34 -303 137 -444h-62c-99 118 -147 271 -147 449v40c0 178 48 329 147 447h62c-98 -132 -137 -282 -137 -442zM813 274v50c0 160 -39 310 -137 442h62c99 -118 147 -269 147 -447v-40c0 -178 -48 -331 -147 -449h-62c103 141 137 292 137 444z
M234 596h441v-54h-189v-16c0 -56 41 -79 217 -153l-26 -52c-151 63 -211 100 -222 120c-13 -22 -71 -55 -224 -120l-26 52c175 74 217 98 217 153v16h-188v54zM159 267h591v-54h-264v-221h-63v221h-264v54z" />
    <glyph glyph-name="afii61352" unicode="&#x2116;" horiz-adv-x="910" 
d="M78 -26v721h85l209 -539c8 -22 17 -59 21 -92v631h67v-721h-85l-210 539c-8 22 -18 61 -20 90v-629h-67zM682 511c108 0 164 -69 164 -186v-41c0 -117 -56 -186 -164 -186s-164 69 -164 186v41c0 118 56 186 164 186zM682 156c68 0 100 44 100 134v29
c0 90 -32 133 -100 133s-98 -43 -98 -133v-29c0 -90 30 -134 98 -134zM540 -26v64h285v-64h-285z" />
    <glyph glyph-name="uni33C7" unicode="&#x33c7;" horiz-adv-x="910" 
d="M258 706c86 0 133 -32 170 -66l-40 -53c-44 40 -78 53 -129 53c-113 0 -150 -103 -150 -254v-92c0 -177 43 -264 156 -264c57 0 93 21 131 65l45 -50c-31 -43 -92 -82 -177 -82c-167 0 -226 122 -226 331v89c0 204 66 323 220 323zM645 706c147 0 199 -113 199 -322v-99
c0 -209 -52 -322 -199 -322s-199 113 -199 322v99c0 209 51 322 199 322zM645 26c99 0 128 93 128 265v87c0 172 -29 265 -128 265s-128 -93 -128 -265v-87c0 -172 29 -265 128 -265zM833 -26v68h55v-68h-55z" />
    <glyph glyph-name="trademark" unicode="&#x2122;" horiz-adv-x="741" 
d="M333 369v326h79l93 -199h2l88 199h81v-326h-55v261h-3l-89 -196h-49l-93 196h-2v-261h-52zM130 369v276h-103v50h264v-50h-103v-276h-58z" />
    <glyph glyph-name="uni33C2" unicode="&#x33c2;" horiz-adv-x="910" 
d="M257 374v-400h-53v50c-12 -32 -40 -57 -86 -57c-53 0 -99 44 -99 144v29c0 100 57 150 139 150h36v77c0 80 -16 101 -59 101c-22 0 -48 -11 -75 -37l-33 40c27 26 64 52 112 52c64 0 118 -30 118 -149zM195 104v133h-39c-43 0 -73 -21 -73 -101v-18c0 -78 22 -98 52 -98
c43 0 60 43 60 84zM366 -26v539h58v-56c16 39 46 66 89 66c35 0 72 -12 91 -70c17 39 50 70 100 70c61 0 104 -39 104 -135v-414h-64v392c0 53 -2 101 -58 101c-51 0 -67 -49 -67 -99v-394h-64v401c0 62 -11 92 -58 92c-44 0 -67 -46 -67 -105v-388h-64zM833 -26v68h55v-68
h-55zM287 -26v68h55v-68h-55z" />
    <glyph glyph-name="uni33D8" unicode="&#x33d8;" horiz-adv-x="910" 
d="M101 28v-268h-64v753h58v-56c11 40 44 66 84 66c79 0 108 -70 108 -221v-115c0 -169 -30 -221 -105 -221c-38 0 -68 19 -81 62zM374 -26v539h58v-56c16 39 44 66 87 66c35 0 70 -12 89 -70c17 39 48 70 98 70c61 0 102 -39 102 -135v-414h-64v392c0 53 0 101 -56 101
c-51 0 -65 -49 -65 -99v-394h-64v401c0 62 -9 92 -56 92c-44 0 -65 -46 -65 -105v-388h-64zM223 195v97c0 115 -11 175 -56 175c-60 0 -66 -68 -66 -133v-181c0 -63 19 -129 66 -129c42 0 56 28 56 171zM293 -26v68h55v-68h-55zM833 -26v68h55v-68h-55z" />
    <glyph glyph-name="uni2121" unicode="&#x2121;" horiz-adv-x="1054" 
d="M402 513h288v-62h-218v-166h197v-62h-197v-187h225v-62h-295v539zM10 695h451v-62h-192v-659h-69v659h-190v62zM766 513h70v-477h208v-62h-278v539z" />
    <glyph glyph-name="uniFF01" unicode="&#xff01;" horiz-adv-x="910" 
d="M407 -54v98h96v-98h-96zM484 148h-58l-12 566h82z" />
    <glyph glyph-name="uniFF02" unicode="&#xff02;" horiz-adv-x="910" 
d="M412 488h-58l-10 242h78zM555 488h-58l-10 242h78z" />
    <glyph glyph-name="uniFF03" unicode="&#xff03;" horiz-adv-x="910" 
d="M571 255h110v-61h-118l-31 -220h-57l31 220h-142l-30 -220h-58l31 220h-109v61h117l23 164h-109v61h118l30 215h57l-30 -215h141l30 215h58l-31 -215h110v-61h-118zM514 255l23 164h-142l-23 -164h142z" />
    <glyph glyph-name="uniFF04" unicode="&#xff04;" horiz-adv-x="910" 
d="M430 -93v75c-86 4 -164 34 -222 79l36 55c63 -47 127 -69 186 -73v270c-155 35 -209 92 -209 178v22c0 102 83 166 209 174v64h55v-64c79 -5 142 -30 187 -61l-34 -50c-38 26 -91 44 -153 49v-256c162 -41 216 -93 216 -186v-22c0 -96 -80 -168 -216 -178v-76h-55z
M632 181c0 54 -30 90 -147 120v-257c93 10 147 57 147 117v20zM290 494c0 -54 33 -84 140 -112v243c-81 -7 -140 -48 -140 -114v-17z" />
    <glyph glyph-name="uniFF05" unicode="&#xff05;" horiz-adv-x="910" 
d="M271 -25h-64l431 720h63zM664 343c97 0 155 -61 155 -166v-45c0 -105 -58 -166 -155 -166s-155 61 -155 166v45c0 105 58 166 155 166zM664 17c58 0 97 33 97 117v41c0 83 -39 117 -97 117s-97 -34 -97 -117v-41c0 -84 39 -117 97 -117zM245 703c97 0 155 -61 155 -166
v-45c0 -105 -58 -166 -155 -166s-155 61 -155 166v45c0 105 58 166 155 166zM245 377c58 0 97 33 97 117v41c0 83 -39 117 -97 117s-97 -34 -97 -117v-41c0 -84 39 -117 97 -117z" />
    <glyph glyph-name="uniFF06" unicode="&#xff06;" horiz-adv-x="910" 
d="M664 347h65c0 -98 -25 -181 -70 -246l108 -127h-80l-68 80c-60 -63 -145 -91 -224 -91h-6c-121 0 -231 65 -231 177v24c0 91 49 143 187 213l-19 23c-33 39 -79 90 -79 151v18c0 64 60 137 173 137c107 0 173 -72 173 -137v-19c0 -64 -36 -122 -154 -190l178 -210
c30 51 47 119 47 197zM393 23c75 0 141 28 187 78l-195 229c-109 -58 -160 -96 -160 -170v-17c0 -64 72 -120 168 -120zM312 554c0 -47 50 -103 88 -149c110 59 128 106 128 149v11c0 47 -49 83 -108 83s-108 -36 -108 -83v-11z" />
    <glyph glyph-name="uniFF07" unicode="&#xff07;" horiz-adv-x="910" 
d="M484 488h-58l-10 242h78z" />
    <glyph glyph-name="uniFF08" unicode="&#xff08;" horiz-adv-x="910" 
d="M748 324v-50c0 -152 34 -303 137 -444h-64c-99 118 -147 271 -147 449v40c0 178 48 329 147 447h64c-98 -132 -137 -282 -137 -442z" />
    <glyph glyph-name="uniFF09" unicode="&#xff09;" horiz-adv-x="910" 
d="M162 274v50c0 160 -39 310 -137 442h64c99 -118 147 -269 147 -447v-40c0 -178 -48 -331 -147 -449h-64c103 141 137 292 137 444z" />
    <glyph glyph-name="uniFF0A" unicode="&#xff0a;" horiz-adv-x="910" 
d="M429 491l-128 -83l-31 57l142 69l-142 68l31 57l127 -83l-6 153h66l-7 -153l128 83l30 -57l-142 -68l142 -69l-30 -57l-128 83l7 -152h-66z" />
    <glyph glyph-name="uniFF0B" unicode="&#xff0b;" horiz-adv-x="910" 
d="M422 568h66v-217h213v-64h-213v-231h-66v231h-213v64h213v217z" />
    <glyph glyph-name="uniFF0C" unicode="&#xff0c;" horiz-adv-x="910" 
d="M390 -175l42 225h88l-72 -225h-58z" />
    <glyph glyph-name="uniFF0D" unicode="&#xff0d;" horiz-adv-x="910" 
d="M334 254v73h242v-73h-242z" />
    <glyph glyph-name="uniFF0E" unicode="&#xff0e;" horiz-adv-x="910" 
d="M404 -55v100h101v-100h-101z" />
    <glyph glyph-name="uniFF0F" unicode="&#xff0f;" horiz-adv-x="910" 
d="M571 759h68l-302 -884h-67z" />
    <glyph glyph-name="uniFF10" unicode="&#xff10;" horiz-adv-x="910" 
d="M700 391v-112c0 -204 -73 -316 -246 -316c-171 0 -244 114 -244 316v112c0 202 76 315 244 315c170 0 246 -113 246 -315zM628 278v114c0 178 -59 251 -174 251c-111 0 -172 -74 -172 -251v-114c0 -179 61 -252 172 -252c115 0 174 72 174 252z" />
    <glyph glyph-name="uniFF11" unicode="&#xff11;" horiz-adv-x="910" 
d="M593 -26h-70v633l-174 -106l-32 56l223 138h53v-721z" />
    <glyph glyph-name="uniFF12" unicode="&#xff12;" horiz-adv-x="910" 
d="M226 34l269 315c79 93 92 130 92 168v8c0 72 -50 117 -137 117c-63 0 -120 -25 -167 -109l-56 35c34 62 101 138 221 138c128 0 210 -72 210 -180v-10c0 -78 -58 -143 -120 -215l-224 -263h370v-64h-458v60z" />
    <glyph glyph-name="uniFF13" unicode="&#xff13;" horiz-adv-x="910" 
d="M295 558l-55 36c36 58 98 112 208 112c131 0 213 -72 213 -180v-10c0 -57 -28 -129 -124 -162c99 -17 152 -84 152 -168v-15c0 -103 -65 -208 -242 -208c-84 0 -163 26 -231 80l35 56c70 -51 130 -72 196 -72c126 0 173 76 173 143v13c0 109 -98 137 -167 137h-81v60h84
c90 0 134 75 134 137v8c0 72 -54 117 -141 117c-57 0 -113 -19 -154 -84z" />
    <glyph glyph-name="uniFF14" unicode="&#xff14;" horiz-adv-x="910" 
d="M544 425h70v-227h106v-64h-106v-160h-70v160h-361v64l350 497h80l-349 -497h280v227z" />
    <glyph glyph-name="uniFF15" unicode="&#xff15;" horiz-adv-x="910" 
d="M631 178v13c0 115 -59 166 -163 166c-61 0 -110 -26 -142 -57h-66l23 395h371v-64h-309l-11 -262c32 30 91 51 151 51c142 0 215 -98 215 -226v-15c0 -103 -64 -216 -244 -216c-98 0 -170 31 -234 80l36 57c69 -53 131 -73 198 -73c129 0 175 85 175 151z" />
    <glyph glyph-name="uniFF16" unicode="&#xff16;" horiz-adv-x="910" 
d="M665 657l-33 -57c-45 26 -98 43 -153 43c-135 0 -184 -113 -195 -304c22 43 81 101 182 101c123 0 229 -82 229 -223v-24c0 -142 -102 -230 -236 -230c-136 0 -244 92 -244 293v24c0 310 101 426 265 426c65 0 131 -19 185 -49zM291 220v-13c0 -108 68 -181 166 -181
s169 62 169 170v15c0 108 -80 168 -168 168c-84 0 -167 -67 -167 -159z" />
    <glyph glyph-name="uniFF17" unicode="&#xff17;" horiz-adv-x="910" 
d="M696 641l-292 -667h-79l293 657h-405v64h483v-54z" />
    <glyph glyph-name="uniFF18" unicode="&#xff18;" horiz-adv-x="910" 
d="M314 523v-12c0 -78 55 -141 141 -141s141 63 141 141v12c0 74 -56 121 -141 121c-86 0 -141 -47 -141 -121zM294 171v-12c0 -74 61 -133 161 -133c101 0 161 59 161 133v12c0 85 -66 142 -161 142c-93 0 -161 -55 -161 -142zM223 157v17c0 79 54 145 132 169
c-69 32 -109 92 -109 167v16c0 103 88 180 209 180s209 -77 209 -180v-16c0 -75 -40 -135 -110 -167c78 -23 133 -90 133 -169v-17c0 -115 -93 -194 -232 -194s-232 79 -232 194z" />
    <glyph glyph-name="uniFF19" unicode="&#xff19;" horiz-adv-x="910" 
d="M247 12l29 59c45 -26 98 -44 155 -44c148 0 189 114 195 301c-20 -42 -81 -104 -182 -104c-123 0 -229 84 -229 225v24c0 142 102 233 236 233s244 -93 244 -294v-30c0 -318 -87 -419 -266 -419c-65 0 -128 18 -182 49zM619 446v13c0 108 -68 184 -166 184
s-169 -65 -169 -173v-15c0 -108 80 -170 168 -170c84 0 167 69 167 161z" />
    <glyph glyph-name="uniFF1A" unicode="&#xff1a;" horiz-adv-x="910" 
d="M404 -55v100h101v-100h-101zM404 383v100h101v-100h-101z" />
    <glyph glyph-name="uniFF1B" unicode="&#xff1b;" horiz-adv-x="910" 
d="M415 383v100h101v-100h-101zM390 -175l42 225h88l-72 -225h-58z" />
    <glyph glyph-name="uniFF1C" unicode="&#xff1c;" horiz-adv-x="910" 
d="M300 323v-6l390 -203v-73l-470 250v59l470 250v-72z" />
    <glyph glyph-name="uniFF1D" unicode="&#xff1d;" horiz-adv-x="910" 
d="M229 393v65h452v-65h-452zM229 182v65h452v-65h-452z" />
    <glyph glyph-name="uniFF1E" unicode="&#xff1e;" horiz-adv-x="910" 
d="M610 317v6l-390 205v72l470 -250v-59l-470 -250v73z" />
    <glyph glyph-name="uniFF1F" unicode="&#xff1f;" horiz-adv-x="910" 
d="M387 -54v98h96v-98h-96zM469 141h-68v47c0 67 23 98 97 170c47 46 94 82 94 151v16c0 72 -53 117 -136 117c-68 0 -125 -29 -166 -76l-45 46c36 43 107 94 209 94c132 0 210 -71 210 -180v-17c0 -98 -67 -145 -129 -204c-44 -42 -66 -68 -66 -120v-44z" />
    <glyph glyph-name="uniFF20" unicode="&#xff20;" horiz-adv-x="910" 
d="M716 45c-53 0 -111 26 -131 86h-1c-25 -64 -101 -84 -148 -84c-123 0 -184 74 -184 195v76c0 122 66 195 183 195c67 0 111 -28 133 -64v58h71v-321c0 -56 35 -79 78 -79c66 0 113 53 113 190v11c0 226 -130 367 -386 367c-219 0 -365 -142 -365 -379v-17
c0 -247 139 -393 385 -393c102 0 202 21 285 65l28 -57c-83 -45 -191 -71 -310 -71c-280 0 -454 174 -454 455v19c0 254 164 440 431 440c293 0 452 -175 452 -426v-13c0 -112 -38 -253 -180 -253zM325 306v-52c0 -97 41 -139 118 -139c73 0 123 41 123 122v100
c0 54 -46 109 -123 109s-118 -44 -118 -140z" />
    <glyph glyph-name="uniFF21" unicode="&#xff21;" horiz-adv-x="910" 
d="M495 695l267 -721h-75l-80 224h-305l-82 -224h-72l268 721h79zM396 454l-72 -195h261l-70 195c-18 49 -31 85 -60 179c-27 -94 -41 -130 -59 -179z" />
    <glyph glyph-name="uniFF22" unicode="&#xff22;" horiz-adv-x="910" 
d="M219 -26v721h230c153 0 229 -58 229 -176v-21c0 -63 -30 -123 -116 -144c88 -13 149 -65 149 -165v-25c0 -118 -75 -190 -231 -190h-261zM288 321v-285h186c113 0 166 44 166 129v22c0 88 -44 134 -188 134h-164zM444 634h-156v-254h163c100 0 157 30 157 120v18
c0 85 -51 116 -164 116z" />
    <glyph glyph-name="uniFF23" unicode="&#xff23;" horiz-adv-x="910" 
d="M474 706c96 0 168 -26 228 -72l-36 -55c-65 46 -119 61 -192 61c-133 0 -206 -103 -206 -254v-92c0 -177 80 -264 213 -264c90 0 151 33 198 74l41 -55c-53 -48 -126 -86 -240 -86c-187 0 -283 122 -283 331v89c0 204 102 323 277 323z" />
    <glyph glyph-name="uniFF24" unicode="&#xff24;" horiz-adv-x="910" 
d="M216 695h225c182 0 292 -110 292 -309v-103c0 -199 -110 -309 -292 -309h-225v721zM286 633v-597h156c129 0 221 80 221 252v93c0 172 -92 252 -221 252h-156z" />
    <glyph glyph-name="uniFF25" unicode="&#xff25;" horiz-adv-x="910" 
d="M244 695h434v-62h-364v-258h343v-62h-343v-277h371v-62h-441v721z" />
    <glyph glyph-name="uniFF26" unicode="&#xff26;" horiz-adv-x="910" 
d="M331 -26h-70v721h428v-62h-358v-276h337v-62h-337v-321z" />
    <glyph glyph-name="uniFF27" unicode="&#xff27;" horiz-adv-x="910" 
d="M471 706c101 0 173 -26 233 -72l-36 -55c-65 46 -121 61 -197 61c-139 0 -209 -103 -209 -254v-92c0 -177 76 -264 223 -264c58 0 129 12 169 36v228h-170v62h238v-329c-62 -45 -144 -64 -240 -64c-199 0 -291 122 -291 331v89c0 204 99 323 280 323z" />
    <glyph glyph-name="uniFF28" unicode="&#xff28;" horiz-adv-x="910" 
d="M613 -26v341h-371v-341h-70v721h70v-310h371v310h70v-721h-70z" />
    <glyph glyph-name="uniFF29" unicode="&#xff29;" horiz-adv-x="910" 
d="M420 -26v721h70v-721h-70z" />
    <glyph glyph-name="uniFF2A" unicode="&#xff2a;" horiz-adv-x="910" 
d="M536 172v523h70v-530c0 -160 -86 -202 -184 -202c-59 0 -122 14 -169 55l34 57c42 -34 85 -46 131 -46c85 0 118 44 118 143z" />
    <glyph glyph-name="uniFF2B" unicode="&#xff2b;" horiz-adv-x="910" 
d="M716 695l-300 -308l319 -413h-90l-279 362l-92 -95v-267h-70v721h70v-364l348 364h94z" />
    <glyph glyph-name="uniFF2C" unicode="&#xff2c;" horiz-adv-x="910" 
d="M255 695h70v-659h361v-62h-431v721z" />
    <glyph glyph-name="uniFF2D" unicode="&#xff2d;" horiz-adv-x="910" 
d="M422 94l-191 408c-17 34 -25 48 -36 91v-619h-69v721h86l244 -528l245 528h83v-721h-69v619c-9 -43 -17 -57 -34 -91l-193 -408h-66z" />
    <glyph glyph-name="uniFF2E" unicode="&#xff2e;" horiz-adv-x="910" 
d="M197 -26v721h83l331 -564c12 -20 20 -37 34 -67v631h67v-721h-83l-332 566c-12 21 -20 35 -33 65v-631h-67z" />
    <glyph glyph-name="uniFF2F" unicode="&#xff2f;" horiz-adv-x="910" 
d="M455 706c178 0 281 -125 281 -322v-99c0 -197 -103 -322 -281 -322s-281 125 -281 322v99c0 197 102 322 281 322zM455 26c128 0 210 93 210 265v87c0 172 -82 265 -210 265s-210 -93 -210 -265v-87c0 -172 82 -265 210 -265z" />
    <glyph glyph-name="uniFF30" unicode="&#xff30;" horiz-adv-x="910" 
d="M239 -26v721h244c153 0 231 -88 231 -206v-21c0 -117 -84 -209 -231 -209h-174v-285h-70zM477 632h-168v-310h157c124 0 177 58 177 148v18c0 85 -53 144 -166 144z" />
    <glyph glyph-name="uniFF31" unicode="&#xff31;" horiz-adv-x="910" 
d="M447 706c178 0 281 -125 281 -322v-99c0 -96 -24 -175 -69 -230l84 -84l-45 -47l-87 87c-44 -31 -99 -48 -164 -48c-178 0 -281 125 -281 322v99c0 197 102 322 281 322zM447 26c44 0 83 11 115 33l-93 94l45 47l95 -95c31 44 49 107 49 186v87c0 172 -83 265 -211 265
s-211 -93 -211 -265v-87c0 -172 83 -265 211 -265z" />
    <glyph glyph-name="uniFF32" unicode="&#xff32;" horiz-adv-x="910" 
d="M639 -26l-139 312c-9 -1 -18 -1 -27 -1h-180v-311h-70v721h249c144 0 227 -83 227 -196v-15c0 -87 -50 -154 -130 -183l145 -327h-75zM462 632h-169v-284h158c125 0 177 52 177 139v10c0 84 -54 135 -166 135z" />
    <glyph glyph-name="uniFF33" unicode="&#xff33;" horiz-adv-x="910" 
d="M454 28c113 0 180 59 180 124v21c0 68 -35 103 -189 138c-168 38 -220 98 -220 189v23c0 109 99 183 236 183c97 0 165 -26 214 -61l-33 -57c-46 33 -107 54 -181 54c-89 0 -165 -44 -165 -119v-20c0 -62 40 -98 171 -128c186 -42 238 -97 238 -200v-23
c0 -103 -92 -189 -248 -189c-95 0 -181 31 -245 80l36 59c71 -52 141 -74 206 -74z" />
    <glyph glyph-name="uniFF34" unicode="&#xff34;" horiz-adv-x="910" 
d="M189 695h531v-62h-231v-659h-70v659h-230v62z" />
    <glyph glyph-name="uniFF35" unicode="&#xff35;" horiz-adv-x="910" 
d="M455 26c125 0 187 76 187 255v414h69v-440c0 -200 -95 -292 -256 -292c-162 0 -256 92 -256 292v440h69v-414c0 -179 62 -255 187 -255z" />
    <glyph glyph-name="uniFF36" unicode="&#xff36;" horiz-adv-x="910" 
d="M414 -26l-257 721h77l222 -649h1l222 649h73l-258 -721h-80z" />
    <glyph glyph-name="uniFF37" unicode="&#xff37;" horiz-adv-x="910" 
d="M203 -26l-197 721h75l162 -646h1l172 646h79l172 -646h1l163 646h73l-199 -721h-80l-171 640l-171 -640h-80z" />
    <glyph glyph-name="uniFF38" unicode="&#xff38;" horiz-adv-x="910" 
d="M726 695l-227 -347l242 -374h-86l-201 327l-206 -327h-80l243 375l-231 346h82l196 -302l189 302h79z" />
    <glyph glyph-name="uniFF39" unicode="&#xff39;" horiz-adv-x="910" 
d="M736 695l-244 -426v-295h-70v295l-248 426h79l205 -362l200 362h78z" />
    <glyph glyph-name="uniFF3A" unicode="&#xff3a;" horiz-adv-x="910" 
d="M702 695v-47l-430 -614h449v-60h-533v55l425 606h-401v60h490z" />
    <glyph glyph-name="uniFF3B" unicode="&#xff3b;" horiz-adv-x="910" 
d="M872 -108v-62h-235v936h235v-62h-168v-812h168z" />
    <glyph glyph-name="uniFFE6" unicode="&#xffe6;" horiz-adv-x="910" 
d="M22 353v51h98l-70 291h67l64 -291h169l70 291h72l70 -291h170l66 291h64l-71 -291h98v-51h-111l-92 -379h-76l-91 379h-128l-91 -379h-76l-92 379h-110zM575 353l74 -304h3l68 304h-145zM193 353l68 -304h3l73 304h-144zM455 620l-52 -216h104z" />
    <glyph glyph-name="uniFF3D" unicode="&#xff3d;" horiz-adv-x="910" 
d="M38 -170v62h168v812h-168v62h235v-936h-235z" />
    <glyph glyph-name="uniFF3E" unicode="&#xff3e;" horiz-adv-x="910" 
d="M667 401h-70l-142 262l-142 -262h-70l180 323h65z" />
    <glyph glyph-name="uniFF3F" unicode="&#xff3f;" horiz-adv-x="910" 
d="M695 -75v-55h-480v55h480z" />
    <glyph glyph-name="uniFF40" unicode="&#xff40;" horiz-adv-x="910" 
d="M539 568h-64l-124 141h83z" />
    <glyph glyph-name="uniFF41" unicode="&#xff41;" horiz-adv-x="910" 
d="M423 -34c-102 0 -173 59 -173 154v22c0 87 65 148 190 148h152v50c0 78 -44 122 -128 122c-58 0 -113 -23 -159 -55l-33 52c50 35 111 64 193 64c120 0 194 -63 194 -172v-377h-66v66h-1c-10 -17 -32 -37 -60 -51c-30 -15 -68 -23 -109 -23zM592 142v91h-151
c-86 0 -123 -39 -123 -94v-16c0 -70 60 -98 115 -98c43 0 76 11 108 31c29 18 51 45 51 86z" />
    <glyph glyph-name="uniFF42" unicode="&#xff42;" horiz-adv-x="910" 
d="M321 38h-1v-64h-67v756h68v-293c32 54 94 86 161 86c128 0 214 -84 214 -231v-95c0 -147 -91 -231 -214 -231c-76 0 -132 34 -161 72zM628 207v75c0 115 -58 179 -150 179c-74 0 -157 -55 -157 -150v-158c0 -63 65 -127 157 -127c91 0 150 67 150 181z" />
    <glyph glyph-name="uniFF43" unicode="&#xff43;" horiz-adv-x="910" 
d="M480 523c76 0 132 -19 177 -53l-31 -53c-50 35 -95 45 -146 45c-95 0 -154 -68 -154 -180v-69c0 -118 60 -185 156 -185c75 0 119 24 158 53l32 -54c-39 -30 -94 -61 -191 -61c-140 0 -224 90 -224 247v67c0 157 91 243 223 243z" />
    <glyph glyph-name="uniFF44" unicode="&#xff44;" horiz-adv-x="910" 
d="M590 -26v71h-1c-30 -54 -98 -79 -160 -79c-124 0 -215 84 -215 231v95c0 147 91 231 214 231c79 0 133 -36 161 -76v283h68v-756h-67zM282 282v-75c0 -115 60 -181 150 -181c87 0 157 46 157 141v162c0 63 -65 134 -157 134c-91 0 -150 -67 -150 -181z" />
    <glyph glyph-name="uniFF45" unicode="&#xff45;" horiz-adv-x="910" 
d="M305 279h300v9c0 112 -55 175 -149 175c-95 0 -151 -69 -151 -175v-9zM631 79l30 -52c-43 -30 -105 -61 -196 -61c-143 0 -228 90 -228 247v67c0 153 84 243 219 243c140 0 217 -94 217 -245v-56h-368v-9c0 -119 62 -187 161 -187c72 0 126 25 165 53z" />
    <glyph glyph-name="uniFF46" unicode="&#xff46;" horiz-adv-x="910" 
d="M386 -26v481h-92v58h92v68c0 117 49 155 139 155c29 0 70 -5 91 -13l-10 -56c-25 7 -49 10 -76 10c-54 0 -76 -26 -76 -99v-65h149v-58h-149v-481h-68z" />
    <glyph glyph-name="uniFF47" unicode="&#xff47;" horiz-adv-x="910" 
d="M589 -19v74h-1c-30 -54 -97 -79 -159 -79c-124 0 -215 84 -215 231v85c0 147 91 231 214 231c79 0 134 -36 162 -76v66h67v-530c0 -153 -86 -232 -220 -232c-76 0 -135 21 -180 56l31 53c50 -35 88 -45 149 -45c99 0 152 53 152 166zM282 282v-65
c0 -115 60 -181 150 -181c87 0 157 46 157 141v152c0 63 -65 134 -157 134c-91 0 -150 -67 -150 -181z" />
    <glyph glyph-name="uniFF48" unicode="&#xff48;" horiz-adv-x="910" 
d="M474 523c123 0 194 -74 194 -186v-363h-68v346c0 77 -29 141 -136 141c-91 0 -154 -74 -154 -137v-350h-68v756h68v-292c25 41 79 85 164 85z" />
    <glyph glyph-name="uniFF49" unicode="&#xff49;" horiz-adv-x="910" 
d="M421 -26v539h68v-539h-68zM418 616v76h74v-76h-74z" />
    <glyph glyph-name="uniFF4A" unicode="&#xff4a;" horiz-adv-x="910" 
d="M497 616v76h74v-76h-74zM568 513v-605c0 -117 -49 -157 -139 -157c-29 0 -70 5 -91 13l10 56c25 -7 49 -10 76 -10c54 0 76 28 76 101v602h68z" />
    <glyph glyph-name="uniFF4B" unicode="&#xff4b;" horiz-adv-x="910" 
d="M655 513l-216 -207l235 -332h-83l-200 287l-87 -84v-203h-68v756h68v-472l260 255h91z" />
    <glyph glyph-name="uniFF4C" unicode="&#xff4c;" horiz-adv-x="910" 
d="M421 -26v756h68v-756h-68z" />
    <glyph glyph-name="uniFF4D" unicode="&#xff4d;" horiz-adv-x="910" 
d="M639 523c122 0 177 -72 177 -186v-363h-68v345c0 87 -24 142 -121 142c-87 0 -136 -71 -138 -133v-354h-68v345c0 87 -24 142 -121 142c-89 0 -138 -74 -138 -137v-350h-68v539h67v-75c24 43 72 85 151 85c86 0 139 -36 163 -98c24 46 78 98 164 98z" />
    <glyph glyph-name="uniFF4E" unicode="&#xff4e;" horiz-adv-x="910" 
d="M474 523c123 0 194 -74 194 -186v-363h-68v346c0 77 -29 141 -136 141c-91 0 -154 -74 -154 -137v-350h-68v539h67v-75c25 41 80 85 165 85z" />
    <glyph glyph-name="uniFF4F" unicode="&#xff4f;" horiz-adv-x="910" 
d="M455 523c144 0 229 -90 229 -245v-67c0 -155 -85 -245 -229 -245s-229 90 -229 245v67c0 156 85 245 229 245zM455 26c99 0 160 62 160 189v59c0 127 -61 189 -160 189s-160 -62 -160 -189v-59c0 -127 61 -189 160 -189z" />
    <glyph glyph-name="uniFF50" unicode="&#xff50;" horiz-adv-x="910" 
d="M322 38h-1v-278h-68v753h67v-76c32 54 95 86 162 86c128 0 214 -84 214 -231v-95c0 -147 -91 -231 -214 -231c-76 0 -131 34 -160 72zM628 207v75c0 115 -58 179 -150 179c-74 0 -157 -55 -157 -150v-158c0 -63 65 -127 157 -127c91 0 150 67 150 181z" />
    <glyph glyph-name="uniFF51" unicode="&#xff51;" horiz-adv-x="910" 
d="M589 -240v285h-1c-30 -54 -97 -79 -159 -79c-124 0 -215 84 -215 231v95c0 147 91 231 214 231c79 0 134 -36 162 -76v66h67v-753h-68zM282 282v-75c0 -115 60 -181 150 -181c87 0 157 46 157 141v162c0 63 -65 134 -157 134c-91 0 -150 -67 -150 -181z" />
    <glyph glyph-name="uniFF52" unicode="&#xff52;" horiz-adv-x="910" 
d="M604 512l-21 -69c-18 7 -39 11 -65 11c-89 0 -145 -73 -145 -174v-306h-68v539h67v-95c23 52 73 105 155 105c30 0 55 -3 77 -11z" />
    <glyph glyph-name="uniFF53" unicode="&#xff53;" horiz-adv-x="910" 
d="M455 27c87 0 134 41 134 87v10c0 54 -42 78 -145 98c-108 21 -179 56 -179 144v14c0 77 63 143 195 143c82 0 141 -23 185 -56l-31 -51c-45 30 -87 47 -156 47c-81 0 -125 -37 -125 -84v-11c0 -47 50 -71 135 -87c133 -25 189 -68 189 -154v-15c0 -86 -84 -146 -198 -146
c-87 0 -156 26 -207 63l33 54c49 -33 107 -56 170 -56z" />
    <glyph glyph-name="uniFF54" unicode="&#xff54;" horiz-adv-x="910" 
d="M386 124v331h-92v58h92v139h68v-139h149v-58h-149v-328c0 -73 22 -99 76 -99c27 0 51 3 76 10l10 -56c-21 -8 -62 -13 -91 -13c-94 0 -139 38 -139 155z" />
    <glyph glyph-name="uniFF55" unicode="&#xff55;" horiz-adv-x="910" 
d="M432 -34c-123 0 -188 74 -188 186v361h68v-344c0 -77 23 -141 130 -141c91 0 155 72 155 135v350h68v-539h-67v75c-25 -41 -81 -83 -166 -83z" />
    <glyph glyph-name="uniFF56" unicode="&#xff56;" horiz-adv-x="910" 
d="M494 -26h-76l-197 539h73l163 -469l160 469h71z" />
    <glyph glyph-name="uniFF57" unicode="&#xff57;" horiz-adv-x="910" 
d="M324 -26h-79l-147 539h69l119 -471l132 471h77l135 -471l116 471h66l-144 -539h-79l-134 463z" />
    <glyph glyph-name="uniFF58" unicode="&#xff58;" horiz-adv-x="910" 
d="M678 513l-181 -260l190 -279h-79l-153 237l-158 -237h-75l192 279l-181 260h76l148 -220l147 220h74z" />
    <glyph glyph-name="uniFF59" unicode="&#xff59;" horiz-adv-x="910" 
d="M219 513h70l167 -463l164 463h70l-280 -762l-58 21l69 193z" />
    <glyph glyph-name="uniFF5A" unicode="&#xff5a;" horiz-adv-x="910" 
d="M652 513v-46l-329 -437h343v-56h-423v52l325 431h-305v56h389z" />
    <glyph glyph-name="uniFF5B" unicode="&#xff5b;" horiz-adv-x="910" 
d="M529 278v65c73 1 106 26 106 83v201c0 98 42 139 144 139h93v-61h-84c-57 0 -86 -12 -86 -80v-192c0 -47 -8 -107 -78 -123c68 -15 78 -73 78 -123v-222c0 -68 31 -74 86 -74h84v-61h-93c-102 0 -144 36 -144 133v230c0 58 -33 84 -106 85z" />
    <glyph glyph-name="uniFF5C" unicode="&#xff5c;" horiz-adv-x="910" 
d="M485 765v-935h-61v935h61z" />
    <glyph glyph-name="uniFF5D" unicode="&#xff5d;" horiz-adv-x="910" 
d="M381 343v-65c-73 -1 -106 -27 -106 -85v-230c0 -97 -42 -133 -144 -133h-93v61h84c55 0 86 6 86 74v222c0 50 10 108 78 123c-70 16 -78 76 -78 123v192c0 68 -29 80 -86 80h-84v61h93c102 0 144 -41 144 -139v-201c0 -57 33 -82 106 -83z" />
    <glyph glyph-name="uniFFE3" unicode="&#xffe3;" horiz-adv-x="910" 
d="M905 762v-39h-900v39h900z" />
    <glyph glyph-name="uni3131" unicode="&#x3131;" horiz-adv-x="910" 
d="M728 60h-72v415h-503v65h575v-480z" />
    <glyph glyph-name="uni3132" unicode="&#x3132;" horiz-adv-x="910" 
d="M420 60h-72v415h-234v65h306v-480zM773 60h-72v415h-234v65h306v-480z" />
    <glyph glyph-name="uni3133" unicode="&#x3133;" horiz-adv-x="910" 
d="M411 60h-72v411h-204v65h276v-476zM657 258h-1c-1 -8 -12 -34 -38 -68c-24 -32 -45 -60 -119 -141l-47 47c63 68 93 104 120 142c42 60 47 76 47 144v162h74v-162c0 -68 4 -84 46 -144c27 -38 57 -74 120 -142l-46 -47c-74 81 -94 109 -118 141c-26 34 -37 60 -38 68z
" />
    <glyph glyph-name="uni3134" unicode="&#x3134;" horiz-adv-x="910" 
d="M182 550h72v-425h512v-65h-584v490z" />
    <glyph glyph-name="uni3135" unicode="&#x3135;" horiz-adv-x="910" 
d="M614 262h-1c-2 -13 -8 -33 -32 -72c-21 -33 -42 -63 -111 -144l-48 41c58 68 86 105 110 145c36 60 43 79 43 147v103h-132v61h336v-61h-131v-103c0 -68 8 -87 44 -147c24 -39 52 -77 110 -145l-47 -41c-68 81 -88 111 -109 144c-24 39 -30 59 -32 72zM229 540v-425h32
c44 0 98 3 147 10l6 -64c-55 -8 -108 -11 -164 -11h-93v490h72z" />
    <glyph glyph-name="uni3136" unicode="&#x3136;" horiz-adv-x="910" 
d="M748 221v-34c0 -76 -51 -150 -156 -150s-156 74 -156 150v34c0 76 51 150 156 150s156 -74 156 -150zM221 540v-425h47c44 0 98 3 147 10l6 -64c-55 -8 -108 -11 -164 -11h-108v490h72zM682 191v26c0 52 -30 92 -90 92s-90 -40 -90 -92v-26c0 -52 30 -92 90 -92
s90 40 90 92zM627 566v-92h154v-60h-378v60h154v92h70z" />
    <glyph glyph-name="uni3137" unicode="&#x3137;" horiz-adv-x="910" 
d="M747 58h-575v484h570v-65h-498v-354h503v-65z" />
    <glyph glyph-name="uni3138" unicode="&#x3138;" horiz-adv-x="910" 
d="M436 58h-278v484h275v-65h-203v-354h206v-65zM777 58h-290v484h287v-65h-215v-354h218v-65z" />
    <glyph glyph-name="uni3139" unicode="&#x3139;" horiz-adv-x="910" 
d="M768 47h-593v288h506v154h-506v64h578v-282h-506v-160h521v-64z" />
    <glyph glyph-name="uni313A" unicode="&#x313a;" horiz-adv-x="910" 
d="M448 59h-303v273h221v147h-221v64h292v-273h-221v-147h232v-64zM784 59h-72v419h-226v65h298v-484z" />
    <glyph glyph-name="uni313B" unicode="&#x313b;" horiz-adv-x="910" 
d="M427 58h-292v274h213v147h-213v64h284v-273h-213v-148h221v-64zM783 58h-305v485h305v-485zM711 123v355h-161v-355h161z" />
    <glyph glyph-name="uni313C" unicode="&#x313c;" horiz-adv-x="910" 
d="M427 58h-292v274h213v147h-213v64h284v-273h-213v-148h221v-64zM784 58h-305v485h72v-175h161v175h72v-485zM712 123v181h-161v-181h161z" />
    <glyph glyph-name="uni313D" unicode="&#x313d;" horiz-adv-x="910" 
d="M425 58h-288v274h213v147h-213v64h284v-273h-213v-148h217v-64zM640 259h-1c-1 -8 -12 -36 -38 -70c-24 -32 -44 -59 -117 -140l-47 47c63 68 91 105 118 143c42 60 47 75 47 143v162h74v-162c0 -68 4 -83 46 -143c27 -38 55 -75 118 -143l-46 -47
c-73 81 -92 108 -116 140c-26 34 -37 62 -38 70z" />
    <glyph glyph-name="uni313E" unicode="&#x313e;" horiz-adv-x="910" 
d="M777 58h-305v485h300v-65h-228v-146h219v-63h-219v-146h233v-65zM424 58h-292v274h213v147h-213v64h284v-273h-213v-148h221v-64z" />
    <glyph glyph-name="uni313F" unicode="&#x313f;" horiz-adv-x="910" 
d="M775 543v-61h-59v-360h63v-64h-333v64h62v360h-58v61h325zM412 58h-282v274h203v147h-203v64h274v-273h-203v-148h211v-64zM574 122h76v360h-76v-360z" />
    <glyph glyph-name="uni3140" unicode="&#x3140;" horiz-adv-x="910" 
d="M763 221v-34c0 -76 -51 -150 -156 -150s-156 74 -156 150v34c0 76 51 150 156 150s156 -74 156 -150zM414 58h-288v274h201v147h-201v64h272v-273h-201v-148h217v-64zM697 191v26c0 52 -30 92 -90 92s-90 -40 -90 -92v-26c0 -52 30 -92 90 -92s90 40 90 92zM642 566v-92
h149v-60h-364v60h145v92h70z" />
    <glyph glyph-name="uni3141" unicode="&#x3141;" horiz-adv-x="910" 
d="M743 58h-576v486h576v-486zM671 123v356h-432v-356h432z" />
    <glyph glyph-name="uni3142" unicode="&#x3142;" horiz-adv-x="910" 
d="M743 57h-576v496h72v-186h432v186h72v-496zM671 122v181h-432v-181h432z" />
    <glyph glyph-name="uni3143" unicode="&#x3143;" horiz-adv-x="910" 
d="M422 58h-284v494h68v-189h148v189h68v-494zM354 122v178h-148v-178h148zM772 58h-284v494h68v-189h148v189h68v-494zM704 122v178h-148v-178h148z" />
    <glyph glyph-name="uni3144" unicode="&#x3144;" horiz-adv-x="910" 
d="M640 258h-1c-1 -8 -12 -34 -38 -68c-24 -32 -45 -60 -119 -141l-47 47c63 68 93 104 120 142c42 60 47 76 47 144v170h74v-170c0 -68 4 -84 46 -144c27 -38 57 -74 120 -142l-46 -47c-74 81 -94 109 -118 141c-26 34 -37 60 -38 68zM424 58h-293v494h70v-189h153v189h70
v-494zM354 122v178h-153v-178h153z" />
    <glyph glyph-name="uni3145" unicode="&#x3145;" horiz-adv-x="910" 
d="M491 560v-117c0 -98 7 -127 117 -212c42 -32 96 -68 177 -118l-40 -57c-92 61 -155 105 -199 139c-54 42 -78 69 -91 92h-1c-13 -24 -37 -51 -91 -93c-44 -34 -107 -78 -199 -139l-40 58c81 50 135 86 177 118c110 85 117 114 117 212v117h73z" />
    <glyph glyph-name="uni3146" unicode="&#x3146;" horiz-adv-x="910" 
d="M250 562h69v-150c0 -118 15 -136 136 -263c121 127 136 145 136 263v150h69v-150c0 -117 26 -155 192 -308l-43 -45c-114 100 -168 166 -184 201h-1c-10 -29 -63 -91 -169 -196c-106 105 -159 167 -169 196h-1c-16 -35 -70 -101 -184 -201l-43 45
c166 153 192 191 192 308v150z" />
    <glyph glyph-name="uni3147" unicode="&#x3147;" horiz-adv-x="910" 
d="M170 281v49c0 129 122 227 285 227c162 0 285 -98 285 -227v-49c0 -129 -123 -227 -285 -227c-163 0 -285 98 -285 227zM455 493c-131 0 -217 -75 -217 -166v-43c0 -91 86 -166 217 -166c130 0 217 75 217 166v43c0 91 -87 166 -217 166z" />
    <glyph glyph-name="uni3148" unicode="&#x3148;" horiz-adv-x="910" 
d="M160 490v61h590v-61h-259v-50c0 -98 7 -127 117 -212c42 -32 96 -68 177 -118l-40 -57c-92 61 -155 105 -199 139c-54 42 -78 69 -91 92h-1c-13 -24 -37 -51 -91 -93c-44 -34 -107 -78 -199 -139l-40 58c81 50 135 86 177 118c110 85 117 114 117 212v50h-258z" />
    <glyph glyph-name="uni3149" unicode="&#x3149;" horiz-adv-x="910" 
d="M125 490v61h660v-61h-135v-78c0 -107 8 -136 182 -298l-43 -45c-113 101 -158 156 -174 191h-1c-10 -28 -53 -80 -159 -186c-106 106 -149 158 -159 186h-1c-16 -35 -61 -91 -174 -191l-43 45c174 162 182 191 182 298v78h-135zM329 412c0 -107 5 -121 126 -253
c121 132 126 146 126 253v78h-252v-78z" />
    <glyph glyph-name="uni314A" unicode="&#x314a;" horiz-adv-x="910" 
d="M491 625v-124h270v-62h-270c0 -97 7 -127 117 -211c42 -32 93 -66 174 -116l-40 -57c-92 61 -152 103 -196 137c-54 42 -78 69 -91 92h-1c-13 -24 -37 -51 -91 -93c-44 -34 -104 -76 -196 -137l-40 58c81 50 132 84 174 116c109 84 117 114 117 211h-269v62h269v124h73z
" />
    <glyph glyph-name="uni314B" unicode="&#x314b;" horiz-adv-x="910" 
d="M150 318l516 7v162h-503v65h577v-501h-74v214l-514 -10z" />
    <glyph glyph-name="uni314C" unicode="&#x314c;" horiz-adv-x="910" 
d="M761 121v-65h-588v488h580v-65h-507v-146h496v-65h-496v-147h515z" />
    <glyph glyph-name="uni314D" unicode="&#x314d;" horiz-adv-x="910" 
d="M141 540h628v-61h-133v-361h142v-61h-646v61h142v361h-133v61zM344 479v-361h222v361h-222z" />
    <glyph glyph-name="uni314E" unicode="&#x314e;" horiz-adv-x="910" 
d="M455 17c-151 0 -255 62 -255 165v34c0 102 104 165 255 165s255 -63 255 -165v-34c0 -103 -104 -165 -255 -165zM455 319c-119 0 -186 -43 -186 -108v-24c0 -65 67 -108 186 -108s186 43 186 108v24c0 65 -67 108 -186 108zM491 625v-125h273v-61h-618v61h273v125h72z
" />
    <glyph glyph-name="uni314F" unicode="&#x314f;" horiz-adv-x="910" 
d="M464 778v-379h200v-63h-200v-472h-71v914h71z" />
    <glyph glyph-name="uni3150" unicode="&#x3150;" horiz-adv-x="910" 
d="M379 759v-360h152v379h70v-914h-70v472h-152v-427h-70v850h70z" />
    <glyph glyph-name="uni3151" unicode="&#x3151;" horiz-adv-x="910" 
d="M464 778v-270h190v-63h-190v-164h190v-63h-190v-354h-71v914h71z" />
    <glyph glyph-name="uni3152" unicode="&#x3152;" horiz-adv-x="910" 
d="M379 759v-251h152v270h70v-914h-70v354h-152v-309h-70v850h70zM379 445v-164h152v164h-152z" />
    <glyph glyph-name="uni3153" unicode="&#x3153;" horiz-adv-x="910" 
d="M599 778v-914h-70v472h-202v63h202v379h70z" />
    <glyph glyph-name="uni3154" unicode="&#x3154;" horiz-adv-x="910" 
d="M254 399h177v360h70v-850h-70v427h-177v63zM667 778v-914h-70v914h70z" />
    <glyph glyph-name="uni3155" unicode="&#x3155;" horiz-adv-x="910" 
d="M338 508h190v270h71v-914h-71v354h-190v63h190v164h-190v63z" />
    <glyph glyph-name="uni3156" unicode="&#x3156;" horiz-adv-x="910" 
d="M254 512h177v247h70v-850h-70v313h-177v63h177v164h-177v63zM667 778v-914h-70v914h70z" />
    <glyph glyph-name="uni3157" unicode="&#x3157;" horiz-adv-x="910" 
d="M490 486v-350h385v-61h-840v61h385v350h70z" />
    <glyph glyph-name="uni3158" unicode="&#x3158;" horiz-adv-x="910" 
d="M754 778v-358h145v-63h-145v-493h-71v914h71zM613 145l6 -61c-165 -17 -285 -23 -591 -23v62c95 0 175 0 244 2v278h71v-277c103 4 184 9 270 19z" />
    <glyph glyph-name="uni3159" unicode="&#x3159;" horiz-adv-x="910" 
d="M657 762v-350h114v366h70v-914h-70v488h-114v-463h-70v873h70zM318 403v-261c73 2 138 4 218 9l3 -60c-136 -9 -268 -11 -490 -11v61h198v262h71z" />
    <glyph glyph-name="uni315A" unicode="&#x315a;" horiz-adv-x="910" 
d="M805 778v-914h-71v914h71zM382 403v-277c109 4 196 9 282 19l6 -61c-165 -17 -306 -23 -612 -23v62c97 0 180 0 253 2v278h71z" />
    <glyph glyph-name="uni315B" unicode="&#x315b;" horiz-adv-x="910" 
d="M627 486v-350h248v-61h-840v61h248v350h70v-350h204v350h70z" />
    <glyph glyph-name="uni315C" unicode="&#x315c;" horiz-adv-x="910" 
d="M35 317h840v-61h-385v-355h-70v355h-385v61z" />
    <glyph glyph-name="uni315D" unicode="&#x315d;" horiz-adv-x="910" 
d="M509 146h220v632h71v-914h-71v219h-220v63zM659 339l6 -61c-93 -9 -179 -15 -293 -19v-366h-72v364c-70 -1 -150 -2 -246 -2v62c289 0 471 7 605 22z" />
    <glyph glyph-name="uni315E" unicode="&#x315e;" horiz-adv-x="910" 
d="M417 167h167v595h70v-873h-70v216h-167v62zM826 778v-914h-70v914h70zM522 320l3 -61c-65 -4 -133 -8 -214 -9v-327h-71v326c-61 -1 -129 -1 -206 -1v62c242 0 340 2 488 10z" />
    <glyph glyph-name="uni315F" unicode="&#x315f;" horiz-adv-x="910" 
d="M800 778v-914h-71v914h71zM659 308l6 -61c-91 -9 -176 -14 -286 -18v-336h-72v333c-72 -1 -154 -2 -253 -2v62c289 0 471 7 605 22z" />
    <glyph glyph-name="uni3160" unicode="&#x3160;" horiz-adv-x="910" 
d="M875 256h-248v-355h-70v355h-204v-355h-70v355h-248v61h840v-61z" />
    <glyph glyph-name="uni3161" unicode="&#x3161;" horiz-adv-x="910" 
d="M35 166h840v-61h-840v61z" />
    <glyph glyph-name="uni3162" unicode="&#x3162;" horiz-adv-x="910" 
d="M805 778v-914h-71v914h71zM664 179l6 -61c-165 -17 -306 -23 -612 -23v62c291 0 451 5 606 22z" />
    <glyph glyph-name="uni3163" unicode="&#x3163;" horiz-adv-x="910" 
d="M490 778v-914h-71v914h71z" />
    <glyph glyph-name="uni3165" unicode="&#x3165;" horiz-adv-x="910" 
d="M150 540h72v-415h203v-65h-275v480zM469 540h72v-415h218v-65h-290v480z" />
    <glyph glyph-name="uni3166" unicode="&#x3166;" horiz-adv-x="910" 
d="M150 540h72v-415h200v-65h-272v480zM760 60h-292v481h282v-65h-210v-351h220v-65z" />
    <glyph glyph-name="uni3167" unicode="&#x3167;" horiz-adv-x="910" 
d="M106 540h72v-415h208v-65h-280v480zM600 254h-1c-1 -8 -12 -34 -38 -68c-24 -32 -45 -60 -119 -141l-47 47c63 68 93 104 120 142c42 60 47 76 47 144v162h74v-162c0 -68 4 -84 46 -144c27 -38 57 -74 120 -142l-46 -47c-74 81 -94 109 -118 141c-26 34 -37 60 -38 68z
" />
    <glyph glyph-name="uni3168" unicode="&#x3168;" horiz-adv-x="910" 
d="M130 540h72v-415h208v-65h-280v480zM606 581l173 -521h-345zM521 123h170l-85 270z" />
    <glyph glyph-name="uni3169" unicode="&#x3169;" horiz-adv-x="910" 
d="M533 546v-434c53 66 81 109 100 149c25 53 23 65 23 119v164h72v-164c0 -54 -2 -66 23 -119c20 -43 51 -90 113 -165l-45 -43c-69 85 -86 114 -106 148c-11 18 -17 32 -20 43c-3 -11 -10 -26 -20 -43c-20 -34 -37 -63 -106 -148l-34 31v-25h-71v422h-158v65h229zM308 59
h-262v274h155v149h-155v64h226v-275h-155v-148h191v-64z" />
    <glyph glyph-name="uni316A" unicode="&#x316a;" horiz-adv-x="910" 
d="M441 58h-294v274h215v147h-215v64h286v-273h-215v-148h223v-64zM763 60h-280v481h270v-65h-198v-351h208v-65z" />
    <glyph glyph-name="uni316B" unicode="&#x316b;" horiz-adv-x="910" 
d="M554 58h-235v494h69v-193h97v193h69v-440c46 67 71 117 89 156c14 30 13 63 13 117v159h72v-159c0 -54 -1 -87 13 -117c20 -43 48 -99 103 -176l-47 -39c-50 70 -64 97 -86 137c-10 18 -15 31 -18 42c-3 -11 -9 -24 -18 -42c-22 -40 -36 -67 -86 -137l-35 28v-23zM288 59
h-223v274h135v149h-135v64h206v-275h-135v-148h152v-64zM485 121v176h-97v-176h97z" />
    <glyph glyph-name="uni316C" unicode="&#x316c;" horiz-adv-x="910" 
d="M604 581l173 -521h-345zM519 123h170l-85 270zM425 60h-293v272h206v147h-206v64h277v-273h-206v-146h222v-64z" />
    <glyph glyph-name="uni316D" unicode="&#x316d;" horiz-adv-x="910" 
d="M445 60h-310v272h214v147h-214v64h285v-273h-214v-146h239v-64zM775 543v-64h-314v64h314zM775 225v-34c0 -76 -51 -150 -156 -150s-156 74 -156 150v34c0 76 51 150 156 150s156 -74 156 -150zM709 195v26c0 52 -30 92 -90 92s-90 -40 -90 -92v-26c0 -52 30 -92 90 -92
s90 40 90 92z" />
    <glyph glyph-name="uni316E" unicode="&#x316e;" horiz-adv-x="910" 
d="M764 58h-285v485h71v-175h143v175h71v-485zM693 123v181h-143v-181h143zM427 58h-282v485h282v-485zM356 123v355h-140v-355h140z" />
    <glyph glyph-name="uni316F" unicode="&#x316f;" horiz-adv-x="910" 
d="M397 58h-290v485h290v-485zM326 123v355h-148v-355h148zM609 252h-1c-1 -8 -12 -32 -38 -66c-24 -32 -45 -60 -119 -141l-47 47c63 68 93 104 120 142c42 60 47 76 47 144v162h74v-162c0 -68 4 -84 46 -144c27 -38 57 -74 120 -142l-46 -47c-74 81 -94 109 -118 141
c-26 34 -37 58 -38 66z" />
    <glyph glyph-name="uni3170" unicode="&#x3170;" horiz-adv-x="910" 
d="M609 581l173 -521h-345zM524 123h170l-85 270zM418 58h-290v485h290v-485zM347 123v355h-148v-355h148z" />
    <glyph glyph-name="uni3171" unicode="&#x3171;" horiz-adv-x="910" 
d="M682 293h-455v363h455v-363zM611 357v235h-313v-235h313zM617 115v-28c0 -57 -55 -118 -162 -118c-106 0 -161 61 -161 118v28c0 57 55 118 161 118c107 0 162 -61 162 -118zM545 91v20c0 38 -37 62 -90 62c-52 0 -89 -24 -89 -62v-20c0 -38 37 -62 89 -62
c53 0 90 24 90 62z" />
    <glyph glyph-name="uni3172" unicode="&#x3172;" horiz-adv-x="910" 
d="M437 59h-293v484h71v-181h151v181h71v-484zM366 124v174h-151v-174h151zM766 58h-71v420h-216v65h287v-485z" />
    <glyph glyph-name="uni3173" unicode="&#x3173;" horiz-adv-x="910" 
d="M432 59h-279v484h71v-181h137v181h71v-484zM361 124v174h-137v-174h137zM756 60h-269v481h259v-65h-187v-351h197v-65z" />
    <glyph glyph-name="uni3174" unicode="&#x3174;" horiz-adv-x="910" 
d="M326 543v-431c53 66 81 109 100 149c25 53 23 65 23 119v164h72v-164c0 -54 -2 -66 23 -119c20 -43 51 -90 113 -165l-45 -43c-69 85 -86 114 -106 148c-11 18 -17 32 -20 43c-3 -11 -10 -26 -20 -43c-20 -34 -37 -63 -106 -148l-34 31v-26h-235v485h69v-184h97v184h69z
M818 59h-71v419h-161v65h232v-484zM257 121v176h-97v-176h97z" />
    <glyph glyph-name="uni3175" unicode="&#x3175;" horiz-adv-x="910" 
d="M326 543v-436c48 69 73 121 92 161c14 30 13 63 13 117v159h72v-159c0 -54 -1 -87 13 -117c19 -41 45 -93 94 -164v439h198v-65h-126v-353h137v-65h-209v24l-38 -31c-50 70 -64 97 -86 137c-10 18 -15 31 -18 42c-3 -11 -9 -24 -18 -42c-22 -40 -36 -67 -86 -137l-38 30
v-25h-235v485h69v-184h97v184h69zM160 121h97v176h-97v-176z" />
    <glyph glyph-name="uni3176" unicode="&#x3176;" horiz-adv-x="910" 
d="M407 58h-286v485h71v-181h144v181h71v-485zM609 260h-1c-2 -13 -9 -28 -33 -70c-20 -34 -39 -63 -105 -144l-48 41c55 68 82 105 105 145c36 63 43 79 43 147v103h-122v61h316v-61h-121v-103c0 -68 8 -84 44 -147c22 -39 50 -77 105 -145l-47 -41
c-65 81 -83 110 -103 144c-24 42 -31 57 -33 70zM336 123v175h-144v-175h144z" />
    <glyph glyph-name="uni3177" unicode="&#x3177;" horiz-adv-x="910" 
d="M431 543v-484h-279v484h71v-181h137v181h71zM223 124h137v174h-137v-174zM741 333v-65h-182v-144h198v-65h-269v482h259v-65h-188v-143h182z" />
    <glyph glyph-name="uni3178" unicode="&#x3178;" horiz-adv-x="910" 
d="M682 302h-455v361h71v-115h313v115h71v-361zM611 367v117h-313v-117h313zM617 115v-28c0 -57 -55 -118 -162 -118c-106 0 -161 61 -161 118v28c0 57 55 118 161 118c107 0 162 -61 162 -118zM545 91v20c0 38 -37 62 -90 62c-52 0 -89 -24 -89 -62v-20
c0 -38 37 -62 89 -62c53 0 90 24 90 62z" />
    <glyph glyph-name="uni3179" unicode="&#x3179;" horiz-adv-x="910" 
d="M432 291h-233v356h66v-121h101v121h66v-356zM366 353v112h-101v-112h101zM710 291h-233v356h66v-121h101v121h66v-356zM644 353v112h-101v-112h101zM617 115v-28c0 -57 -55 -118 -162 -118c-106 0 -161 61 -161 118v28c0 57 55 118 161 118c107 0 162 -61 162 -118z
M545 91v20c0 38 -37 62 -90 62c-52 0 -89 -24 -89 -62v-20c0 -38 37 -62 89 -62c53 0 90 24 90 62z" />
    <glyph glyph-name="uni317A" unicode="&#x317a;" horiz-adv-x="910" 
d="M778 60h-72v416h-232v65h304v-481zM338 258h-1c-1 -8 -12 -34 -38 -68c-24 -32 -45 -60 -119 -141l-47 47c63 68 93 104 120 142c42 60 47 76 47 144v162h74v-162c0 -68 4 -84 46 -144c27 -38 57 -74 120 -142l-46 -47c-74 81 -94 109 -118 141c-26 34 -37 60 -38 68z
" />
    <glyph glyph-name="uni317B" unicode="&#x317b;" horiz-adv-x="910" 
d="M307 258h-1c-1 -8 -12 -31 -38 -68c-23 -32 -40 -60 -114 -141l-47 44c63 68 89 107 115 145c42 63 47 76 47 144v158h74v-158c0 -68 4 -81 46 -144c26 -38 52 -77 115 -145l-46 -44c-74 81 -90 109 -113 141c-26 37 -37 60 -38 68zM514 540h72v-415h216v-65h-288v480z
" />
    <glyph glyph-name="uni317C" unicode="&#x317c;" horiz-adv-x="910" 
d="M799 60h-284v481h274v-65h-202v-351h212v-65zM307 258h-1c-1 -8 -12 -31 -38 -68c-23 -32 -40 -60 -114 -141l-47 44c63 68 89 107 115 145c42 63 47 76 47 144v158h74v-158c0 -68 4 -81 46 -144c26 -38 52 -77 115 -145l-46 -44c-74 81 -90 109 -113 141
c-26 37 -37 60 -38 68z" />
    <glyph glyph-name="uni317D" unicode="&#x317d;" horiz-adv-x="910" 
d="M797 58h-286v485h71v-181h144v181h71v-485zM726 123v175h-144v-175h144zM307 258h-1c-1 -8 -12 -31 -38 -68c-23 -32 -40 -60 -114 -141l-47 44c63 68 89 107 115 145c42 63 47 76 47 144v158h74v-158c0 -68 4 -81 46 -144c26 -38 52 -77 115 -145l-46 -44
c-74 81 -90 109 -113 141c-26 37 -37 60 -38 68z" />
    <glyph glyph-name="uni317E" unicode="&#x317e;" horiz-adv-x="910" 
d="M307 258h-1c-1 -8 -12 -31 -38 -68c-23 -32 -40 -60 -114 -141l-47 44c63 68 89 107 115 145c42 63 47 76 47 144v158h74v-158c0 -68 4 -81 46 -144c19 -29 40 -61 75 -100c31 37 50 64 68 94c36 60 43 79 43 147v103h-132v61h336v-61h-131v-103c0 -68 8 -87 44 -147
c24 -39 52 -77 110 -145l-47 -41c-68 81 -88 111 -109 144c-24 39 -30 59 -32 72h-1c-2 -13 -13 -36 -37 -75c-21 -33 -66 -95 -110 -141h-1c-52 54 -97 112 -120 144c-26 37 -37 60 -38 68z" />
    <glyph glyph-name="uni317F" unicode="&#x317f;" horiz-adv-x="910" 
d="M454 616l229 -548h-456zM331 129h249l-126 318z" />
    <glyph glyph-name="uni3180" unicode="&#x3180;" horiz-adv-x="910" 
d="M268 45c-109 0 -162 82 -162 223v65c0 141 53 223 162 223c111 0 164 -82 164 -223v-65c0 -141 -53 -223 -164 -223zM268 491c-66 0 -94 -66 -94 -167v-47c0 -101 28 -167 94 -167c68 0 96 66 96 167v47c0 101 -28 167 -96 167zM638 45c-109 0 -162 82 -162 223v65
c0 141 53 223 162 223c111 0 164 -82 164 -223v-65c0 -141 -53 -223 -164 -223zM638 491c-66 0 -94 -66 -94 -167v-47c0 -101 28 -167 94 -167c68 0 96 66 96 167v47c0 101 -28 167 -96 167z" />
    <glyph glyph-name="uni3181" unicode="&#x3181;" horiz-adv-x="910" 
d="M454 -5c-156 0 -246 113 -246 214v65c0 93 76 195 210 211v172h72v-172c134 -16 211 -118 211 -211v-65c0 -101 -90 -214 -247 -214zM454 421c-100 0 -172 -67 -172 -154v-51c0 -87 72 -153 172 -153c101 0 173 66 173 153v51c0 87 -72 154 -173 154z" />
    <glyph glyph-name="uni3182" unicode="&#x3182;" horiz-adv-x="910" 
d="M267 50c-99 0 -156 63 -156 173v50c0 96 43 156 120 170v117h72v-117c80 -14 124 -74 124 -170v-50c0 -110 -57 -173 -160 -173zM605 258h-1c-1 -8 -12 -31 -38 -68c-23 -32 -40 -60 -114 -141l-47 44c63 68 89 107 115 145c42 63 47 76 47 144v158h74v-158
c0 -68 4 -81 46 -144c26 -38 52 -77 115 -145l-46 -44c-74 81 -90 109 -113 141c-26 37 -37 60 -38 68zM267 386c-57 0 -90 -42 -90 -120v-36c0 -78 33 -120 90 -120c61 0 94 42 94 120v36c0 78 -33 120 -94 120z" />
    <glyph glyph-name="uni3183" unicode="&#x3183;" horiz-adv-x="910" 
d="M288 50c-99 0 -156 63 -156 173v50c0 96 43 156 120 170v117h72v-117c80 -14 124 -74 124 -170v-50c0 -110 -57 -173 -160 -173zM614 581l173 -521h-345zM288 386c-57 0 -90 -42 -90 -120v-36c0 -78 33 -120 90 -120c61 0 94 42 94 120v36c0 78 -33 120 -94 120zM529 123
h170l-85 270z" />
    <glyph glyph-name="uni3184" unicode="&#x3184;" horiz-adv-x="910" 
d="M220 663h470v-61h-93v-236h102v-61h-488v61h102v236h-93v61zM617 115v-28c0 -57 -55 -118 -162 -118c-106 0 -161 61 -161 118v28c0 57 55 118 161 118c107 0 162 -61 162 -118zM383 602v-236h144v236h-144zM545 91v20c0 38 -37 62 -90 62c-52 0 -89 -24 -89 -62v-20
c0 -38 37 -62 89 -62c53 0 90 24 90 62z" />
    <glyph glyph-name="uni3185" unicode="&#x3185;" horiz-adv-x="910" 
d="M420 221v-34c0 -76 -40 -150 -136 -150s-136 74 -136 150v34c0 76 40 150 136 150s136 -74 136 -150zM756 221v-34c0 -76 -40 -150 -136 -150s-136 74 -136 150v34c0 76 40 150 136 150s136 -74 136 -150zM355 191v26c0 52 -17 92 -71 92c-51 0 -71 -40 -71 -92v-26
c0 -52 17 -92 71 -92s71 40 71 92zM691 191v26c0 52 -17 92 -71 92c-51 0 -71 -40 -71 -92v-26c0 -52 17 -92 71 -92s71 40 71 92zM655 566v-92h119v-60h-304v60h115v92h70zM319 566v-92h119v-60h-304v60h115v92h70z" />
    <glyph glyph-name="uni3186" unicode="&#x3186;" horiz-adv-x="910" 
d="M700 640v-64h-491v64h491zM454 6c-145 0 -229 105 -229 199v61c0 94 84 199 229 199c146 0 230 -105 230 -199v-61c0 -94 -84 -199 -230 -199zM454 400c-92 0 -158 -61 -158 -141v-47c0 -80 66 -141 158 -141c93 0 159 61 159 141v47c0 80 -66 141 -159 141z" />
    <glyph glyph-name="uni3187" unicode="&#x3187;" horiz-adv-x="910" 
d="M754 778v-250h145v-63h-145v-164h145v-63h-145v-374h-71v914h71zM454 403v-272c55 4 106 8 159 14l6 -61c-165 -17 -285 -23 -591 -23v62h153v280h71v-279c48 1 91 2 131 4v275h71z" />
    <glyph glyph-name="uni3188" unicode="&#x3188;" horiz-adv-x="910" 
d="M657 762v-234h114v250h70v-914h-70v374h-114v-349h-70v873h70zM419 403v-258c37 2 75 3 117 6l3 -60c-136 -9 -268 -11 -490 -11v61h107v262h71v-262l121 2v260h71zM657 465v-164h114v164h-114z" />
    <glyph glyph-name="uni3189" unicode="&#x3189;" horiz-adv-x="910" 
d="M494 403v-272c61 4 116 8 170 14l6 -61c-165 -17 -306 -23 -612 -23v62h163v280h71v-279c47 1 90 2 131 4v275h71zM805 778v-914h-71v914h71z" />
    <glyph glyph-name="uni318A" unicode="&#x318a;" horiz-adv-x="910" 
d="M659 359l6 -61c-69 -7 -134 -12 -209 -16v-389h-72v387c-33 -1 -67 -3 -105 -3v-384h-72v382h-153v62c289 0 471 7 605 22zM542 215h187v563h71v-914h-71v140h-187v63h187v85h-187v63z" />
    <glyph glyph-name="uni318B" unicode="&#x318b;" horiz-adv-x="910" 
d="M524 347l3 -61c-43 -3 -88 -5 -137 -7v-356h-71v354c-30 0 -62 -1 -95 -1v-353h-71v352h-119v62c242 0 342 2 490 10zM464 211h132v551h70v-873h-70v111h-132v63h132v85h-132v63zM826 778v-914h-70v914h70z" />
    <glyph glyph-name="uni318C" unicode="&#x318c;" horiz-adv-x="910" 
d="M659 359l6 -61c-59 -6 -116 -10 -179 -14v-391h-72v388c-41 -2 -86 -3 -135 -4v-384h-72v382h-153v62c289 0 471 7 605 22zM800 778v-914h-71v914h71z" />
    <glyph glyph-name="uni318D" unicode="&#x318d;" horiz-adv-x="910" 
d="M397 339c0 33 24 57 57 57s58 -24 58 -57s-25 -58 -58 -58s-57 25 -57 58z" />
    <glyph glyph-name="uni318E" unicode="&#x318e;" horiz-adv-x="910" 
d="M230 339c0 33 24 57 57 57s58 -24 58 -57s-25 -58 -58 -58s-57 25 -57 58zM550 778v-914h-71v914h71z" />
    <glyph glyph-name="uni2170" unicode="&#x2170;" horiz-adv-x="910" 
d="M421 -26v539h68v-539h-68zM418 616v76h74v-76h-74z" />
    <glyph glyph-name="uni2171" unicode="&#x2171;" horiz-adv-x="910" 
d="M293 -26v539h68v-539h-68zM290 616v76h74v-76h-74zM548 -26v539h68v-539h-68zM545 616v76h74v-76h-74z" />
    <glyph glyph-name="uni2172" unicode="&#x2172;" horiz-adv-x="910" 
d="M192 -26v539h68v-539h-68zM189 616v76h74v-76h-74zM421 -26v539h68v-539h-68zM418 616v76h74v-76h-74zM649 -26v539h68v-539h-68zM646 616v76h74v-76h-74z" />
    <glyph glyph-name="uni2173" unicode="&#x2173;" horiz-adv-x="910" 
d="M225 -26v539h68v-539h-68zM222 616v76h74v-76h-74zM595 -26h-78l-156 539h72l125 -467l120 467h70z" />
    <glyph glyph-name="uni2174" unicode="&#x2174;" horiz-adv-x="910" 
d="M494 -26h-76l-197 539h73l163 -469l160 469h71z" />
    <glyph glyph-name="uni2175" unicode="&#x2175;" horiz-adv-x="910" 
d="M617 -26v539h68v-539h-68zM614 616v76h74v-76h-74zM396 -26h-78l-156 539h72l125 -467l120 467h70z" />
    <glyph glyph-name="uni2176" unicode="&#x2176;" horiz-adv-x="910" 
d="M542 -26v539h68v-539h-68zM539 616v76h74v-76h-74zM321 -26h-78l-152 539h72l121 -467l116 467h70zM724 -26v539h68v-539h-68zM721 616v76h74v-76h-74z" />
    <glyph glyph-name="uni2177" unicode="&#x2177;" horiz-adv-x="910" 
d="M470 -26v539h68v-539h-68zM467 616v76h74v-76h-74zM279 -26h-78l-142 539h71l112 -467l107 467h69zM620 -26v539h68v-539h-68zM617 616v76h74v-76h-74zM770 -26v539h68v-539h-68zM767 616v76h74v-76h-74z" />
    <glyph glyph-name="uni2178" unicode="&#x2178;" horiz-adv-x="910" 
d="M234 -26v539h68v-539h-68zM231 616v76h74v-76h-74zM763 513l-151 -260l160 -279h-78l-125 233l-127 -233h-75l162 279l-151 260h75l120 -216l116 216h74z" />
    <glyph glyph-name="uni2179" unicode="&#x2179;" horiz-adv-x="910" 
d="M678 513l-181 -260l190 -279h-79l-153 237l-158 -237h-75l192 279l-181 260h76l148 -220l147 220h74z" />
    <glyph glyph-name="uni2160" unicode="&#x2160;" horiz-adv-x="910" 
d="M420 -26v721h70v-721h-70z" />
    <glyph glyph-name="uni2161" unicode="&#x2161;" horiz-adv-x="910" 
d="M299 -26v721h70v-721h-70zM541 -26v721h70v-721h-70z" />
    <glyph glyph-name="uni2162" unicode="&#x2162;" horiz-adv-x="910" 
d="M185 -26v721h70v-721h-70zM655 -26v721h70v-721h-70zM420 -26v721h70v-721h-70z" />
    <glyph glyph-name="uni2163" unicode="&#x2163;" horiz-adv-x="910" 
d="M533 -26l-206 721h77l172 -640h1l172 640h73l-207 -721h-82zM189 -26v721h70v-721h-70z" />
    <glyph glyph-name="uni2164" unicode="&#x2164;" horiz-adv-x="910" 
d="M414 -26l-257 721h77l222 -649h1l222 649h73l-258 -721h-80z" />
    <glyph glyph-name="uni2165" unicode="&#x2165;" horiz-adv-x="910" 
d="M294 -26l-206 721h77l172 -643h1l172 643h73l-207 -721h-82zM651 -26v721h70v-721h-70z" />
    <glyph glyph-name="uni2166" unicode="&#x2166;" horiz-adv-x="910" 
d="M224 -26l-185 721h77l154 -638h1l150 638h73l-182 -721h-88zM553 -26v721h70v-721h-70zM733 -26v721h70v-721h-70z" />
    <glyph glyph-name="uni2167" unicode="&#x2167;" horiz-adv-x="910" 
d="M179 -26l-135 721h75l106 -635h1l102 635h71l-132 -721h-88zM450 -26v721h68v-721h-68zM611 -26v721h68v-721h-68zM767 -26v721h68v-721h-68z" />
    <glyph glyph-name="uni2168" unicode="&#x2168;" horiz-adv-x="910" 
d="M816 695l-184 -347l199 -374h-84l-163 327l-168 -327h-78l200 375l-188 346h80l158 -302l151 302h77zM201 -26v721h70v-721h-70z" />
    <glyph glyph-name="uni2169" unicode="&#x2169;" horiz-adv-x="910" 
d="M726 695l-227 -347l242 -374h-86l-201 327l-206 -327h-80l243 375l-231 346h82l196 -302l189 302h79z" />
    <glyph glyph-name="Alpha" unicode="&#x391;" horiz-adv-x="658" 
d="M369 695l267 -721h-75l-80 224h-305l-82 -224h-72l268 721h79zM270 454l-72 -195h261l-70 195c-18 49 -31 85 -60 179c-27 -94 -41 -130 -59 -179z" />
    <glyph glyph-name="Beta" unicode="&#x392;" horiz-adv-x="615" 
d="M83 -26v721h230c153 0 229 -58 229 -176v-21c0 -63 -30 -123 -116 -144c88 -13 149 -65 149 -165v-25c0 -118 -75 -190 -231 -190h-261zM152 321v-285h186c113 0 166 44 166 129v22c0 88 -44 134 -188 134h-164zM308 634h-156v-254h163c100 0 157 30 157 120v18
c0 85 -51 116 -164 116z" />
    <glyph glyph-name="Gamma" unicode="&#x393;" horiz-adv-x="514" 
d="M153 -26h-70v721h411v-61h-341v-660z" />
    <glyph glyph-name="Delta" unicode="&#x394;" horiz-adv-x="651" 
d="M18 -26l265 721h76l263 -721h-604zM322 623h-1l-209 -584h415z" />
    <glyph glyph-name="Epsilon" unicode="&#x395;" horiz-adv-x="588" 
d="M83 695h434v-62h-364v-258h343v-62h-343v-277h371v-62h-441v721z" />
    <glyph glyph-name="Zeta" unicode="&#x396;" horiz-adv-x="597" 
d="M542 695v-47l-430 -614h449v-60h-533v55l425 606h-401v60h490z" />
    <glyph glyph-name="Eta" unicode="&#x397;" horiz-adv-x="677" 
d="M497 -26v341h-371v-341h-70v721h70v-310h371v310h70v-721h-70z" />
    <glyph glyph-name="Theta" unicode="&#x398;" horiz-adv-x="692" 
d="M509 371v-70h-326v70h326zM346 706c178 0 281 -125 281 -322v-99c0 -197 -103 -322 -281 -322s-281 125 -281 322v99c0 197 102 322 281 322zM346 26c128 0 210 93 210 265v87c0 172 -82 265 -210 265s-210 -93 -210 -265v-87c0 -172 82 -265 210 -265z" />
    <glyph glyph-name="Iota" unicode="&#x399;" horiz-adv-x="236" 
d="M83 -26v721h70v-721h-70z" />
    <glyph glyph-name="Kappa" unicode="&#x39a;" horiz-adv-x="644" 
d="M595 695l-300 -308l319 -413h-90l-279 362l-92 -95v-267h-70v721h70v-364l348 364h94z" />
    <glyph glyph-name="Lambda" unicode="&#x39b;" horiz-adv-x="639" 
d="M360 695l257 -721h-77l-222 649h-1l-222 -649h-73l258 721h80z" />
    <glyph glyph-name="Mu" unicode="&#x39c;" horiz-adv-x="824" 
d="M379 94l-191 408c-17 34 -25 48 -36 91v-619h-69v721h86l244 -528l245 528h83v-721h-69v619c-9 -43 -17 -57 -34 -91l-193 -408h-66z" />
    <glyph glyph-name="Nu" unicode="&#x39d;" horiz-adv-x="681" 
d="M83 -26v721h83l331 -564c12 -20 20 -37 34 -67v631h67v-721h-83l-332 566c-12 21 -20 35 -33 65v-631h-67z" />
    <glyph glyph-name="Xi" unicode="&#x39e;" horiz-adv-x="563" 
d="M83 36h441v-62h-441v62zM107 313v62h387v-62h-387zM517 633h-434v62h434v-62z" />
    <glyph glyph-name="Omicron" unicode="&#x39f;" horiz-adv-x="692" 
d="M346 706c178 0 281 -125 281 -322v-99c0 -197 -103 -322 -281 -322s-281 125 -281 322v99c0 197 102 322 281 322zM346 26c128 0 210 93 210 265v87c0 172 -82 265 -210 265s-210 -93 -210 -265v-87c0 -172 82 -265 210 -265z" />
    <glyph glyph-name="Pi" unicode="&#x3a0;" horiz-adv-x="665" 
d="M578 695v-721h-70v660h-355v-660h-70v721h495z" />
    <glyph glyph-name="Rho" unicode="&#x3a1;" horiz-adv-x="598" 
d="M83 -26v721h244c153 0 231 -88 231 -206v-21c0 -117 -84 -209 -231 -209h-174v-285h-70zM321 632h-168v-310h157c124 0 177 58 177 148v18c0 85 -53 144 -166 144z" />
    <glyph glyph-name="Sigma" unicode="&#x3a3;" horiz-adv-x="579" 
d="M83 695h434v-62h-344l207 -301l-211 -296h355v-62h-441v50l217 307l-217 317v47z" />
    <glyph glyph-name="Tau" unicode="&#x3a4;" horiz-adv-x="571" 
d="M20 695h531v-62h-231v-659h-70v659h-230v62z" />
    <glyph glyph-name="Upsilon" unicode="&#x3a5;" horiz-adv-x="602" 
d="M582 695l-244 -426v-295h-70v295l-248 426h79l205 -362l200 362h78z" />
    <glyph glyph-name="Phi" unicode="&#x3a6;" horiz-adv-x="742" 
d="M60 323v53c0 148 99 241 277 252v90h67v-90c177 -10 278 -104 278 -252v-53c0 -148 -101 -242 -278 -252v-97h-67v97c-178 10 -277 104 -277 252zM613 329v41c0 124 -82 187 -209 196v-433c127 9 209 71 209 196zM129 370v-41c0 -124 80 -187 208 -196v433
c-128 -9 -208 -72 -208 -196z" />
    <glyph glyph-name="Chi" unicode="&#x3a7;" horiz-adv-x="641" 
d="M592 695l-227 -347l242 -374h-86l-201 327l-206 -327h-80l243 375l-231 346h82l196 -302l189 302h79z" />
    <glyph glyph-name="Psi" unicode="&#x3a8;" horiz-adv-x="707" 
d="M317 -26v192c-144 13 -252 106 -252 291v218h69v-195c0 -166 76 -234 183 -246v441h70v-442c108 11 186 79 186 247v195h69v-218c0 -186 -110 -279 -255 -291v-192h-70z" />
    <glyph glyph-name="Omega" unicode="&#x3a9;" horiz-adv-x="739" 
d="M25 -26v58h178c-73 47 -110 141 -110 259v99c0 197 98 316 277 316c178 0 277 -119 277 -316v-99c0 -119 -36 -212 -110 -259h177v-58h-263v64c65 33 125 127 125 259v87c0 172 -78 259 -206 259s-206 -87 -206 -259v-87c0 -132 44 -226 124 -259v-64h-263z" />
    <glyph glyph-name="alpha" unicode="&#x3b1;" horiz-adv-x="579" 
d="M432 -26v71h-1c-30 -54 -98 -79 -160 -79c-124 0 -215 84 -215 231v95c0 147 91 231 214 231c79 0 127 -28 161 -76v66h68v-539h-67zM124 282v-75c0 -115 60 -181 150 -181c87 0 157 46 157 141v162c0 63 -65 134 -157 134c-91 0 -150 -67 -150 -181z" />
    <glyph glyph-name="beta" unicode="&#x3b2;" horiz-adv-x="573" 
d="M471 563v-21c0 -98 -44 -149 -110 -171c84 -10 162 -62 162 -173v-35c0 -122 -89 -197 -203 -197c-86 0 -145 32 -172 73v-279h-68v776c0 141 93 200 200 200c134 0 191 -82 191 -173zM148 531v-377c0 -58 56 -127 169 -127c103 0 138 80 138 138v30
c0 105 -70 146 -195 142v58c115 0 143 58 143 148v17c0 69 -35 114 -122 114c-80 0 -133 -44 -133 -143z" />
    <glyph glyph-name="gamma" unicode="&#x3b3;" horiz-adv-x="505" 
d="M17 513h70l167 -463l164 463h70l-201 -546v-207h-68v205z" />
    <glyph glyph-name="delta" unicode="&#x3b4;" horiz-adv-x="568" 
d="M280 478c-96 42 -137 92 -137 137v16c0 47 51 105 156 105c65 0 109 -13 152 -36l-26 -54c-44 23 -79 30 -121 30c-59 0 -93 -21 -93 -52v-5c0 -46 51 -66 134 -119c100 -64 168 -121 168 -252v-37c0 -155 -85 -245 -229 -245s-229 90 -229 245v32c0 167 107 238 225 235
zM284 26c99 0 160 62 160 189v36c0 109 -70 176 -157 176c-98 0 -163 -51 -163 -188v-24c0 -127 61 -189 160 -189z" />
    <glyph glyph-name="epsilon" unicode="&#x3b5;" horiz-adv-x="468" 
d="M423 488l-23 -53c-47 23 -94 29 -133 29c-82 0 -131 -21 -131 -72v-9c0 -51 52 -95 127 -95h67v-60h-67c-82 0 -139 -25 -139 -96v-13c0 -57 40 -92 136 -92c50 0 113 12 167 48l31 -52c-52 -41 -134 -57 -198 -57c-139 0 -204 54 -204 154v14c0 74 56 114 129 127
c-71 16 -116 59 -116 119v14c0 86 82 129 196 129c64 0 107 -10 158 -35z" />
    <glyph glyph-name="zeta" unicode="&#x3b6;" horiz-adv-x="430" 
d="M357 -171l-37 43c39 28 51 45 51 68c0 29 -50 40 -96 53c-130 36 -225 89 -225 228v23c0 164 106 320 254 426h-194v60h293l6 -50c-164 -106 -291 -259 -291 -438v-19c0 -107 74 -143 170 -171c95 -28 147 -44 147 -103c0 -61 -27 -83 -78 -120z" />
    <glyph glyph-name="eta" unicode="&#x3b7;" horiz-adv-x="582" 
d="M312 523c123 0 194 -74 194 -186v-577h-68v560c0 77 -29 141 -136 141c-91 0 -154 -74 -154 -137v-350h-68v539h67v-75c25 41 80 85 165 85z" />
    <glyph glyph-name="theta" unicode="&#x3b8;" horiz-adv-x="570" 
d="M285 736c147 0 220 -125 220 -322v-128c0 -197 -73 -322 -220 -322s-220 125 -220 322v128c0 197 72 322 220 322zM285 25c103 0 151 95 151 267v34h-302v-34c0 -172 48 -267 151 -267zM436 384v24c0 172 -48 267 -151 267s-151 -95 -151 -267v-24h302z" />
    <glyph glyph-name="iota" unicode="&#x3b9;" horiz-adv-x="255" 
d="M224 30l11 -54c-18 -7 -47 -10 -62 -10c-64 0 -93 35 -93 108v439h68v-433c0 -39 12 -56 44 -56c10 0 23 3 32 6z" />
    <glyph glyph-name="kappa" unicode="&#x3ba;" horiz-adv-x="540" 
d="M499 513l-219 -222l238 -317h-83l-201 271l-86 -87v-184h-68v539h68v-271l263 271h88z" />
    <glyph glyph-name="lambda" unicode="&#x3bb;" horiz-adv-x="505" 
d="M106 668l-19 55c20 9 42 13 57 13c48 0 71 -21 87 -63l257 -699h-72l-165 461l-162 -461h-70l198 548l-45 121c-8 22 -16 33 -34 33c-12 0 -23 -4 -32 -8z" />
    <glyph glyph-name="mu" unicode="&#x3bc;" horiz-adv-x="581" 
d="M433 513h68v-539h-67v62c-22 -35 -76 -70 -139 -70c-76 0 -120 32 -146 72h-1v-278h-68v753h68v-345c0 -72 54 -140 146 -140c79 0 139 63 139 172v313z" />
    <glyph glyph-name="nu" unicode="&#x3bd;" horiz-adv-x="501" 
d="M290 -26h-76l-197 539h73l163 -469l160 469h71z" />
    <glyph glyph-name="xi" unicode="&#x3be;" horiz-adv-x="461" 
d="M117 223v-11c0 -107 80 -136 176 -161c95 -25 147 -43 147 -103c0 -61 -27 -83 -78 -120l-37 43c39 28 51 45 51 68c0 29 -50 42 -96 53c-130 32 -231 79 -231 218v16c0 111 78 161 162 171c-69 12 -136 64 -136 162v19c0 90 65 158 195 158c59 0 111 -9 163 -47l-30 -50
c-42 28 -83 36 -132 36c-84 0 -128 -34 -128 -100v-15c0 -75 65 -136 163 -136h51v-59h-54c-109 0 -186 -45 -186 -142z" />
    <glyph glyph-name="omicron" unicode="&#x3bf;" horiz-adv-x="568" 
d="M284 523c144 0 229 -90 229 -245v-67c0 -155 -85 -245 -229 -245s-229 90 -229 245v67c0 156 85 245 229 245zM284 26c99 0 160 62 160 189v59c0 127 -61 189 -160 189s-160 -62 -160 -189v-59c0 -127 61 -189 160 -189z" />
    <glyph glyph-name="pi" unicode="&#x3c0;" horiz-adv-x="570" 
d="M509 30l11 -54c-18 -7 -47 -10 -62 -10c-64 0 -93 35 -93 108v377h-163v-477h-65v477h-117v62h530v-62h-117v-371c0 -39 12 -56 44 -56c10 0 23 3 32 6z" />
    <glyph glyph-name="rho" unicode="&#x3c1;" horiz-adv-x="558" 
d="M279 523c144 0 224 -90 224 -245v-67c0 -155 -80 -245 -221 -245c-63 0 -124 22 -159 73v-279h-68v518c0 156 80 245 224 245zM279 26c99 0 155 62 155 189v59c0 127 -56 189 -155 189s-155 -62 -155 -189v-59c0 -127 56 -189 155 -189z" />
    <glyph glyph-name="sigma" unicode="&#x3c3;" horiz-adv-x="564" 
d="M544 513v-60h-110c56 -47 79 -104 79 -185v-57c0 -155 -85 -245 -229 -245s-229 90 -229 245v57c0 152 81 240 218 245h271zM284 26c99 0 160 62 160 189v49c0 127 -61 189 -160 189s-160 -62 -160 -189v-49c0 -127 61 -189 160 -189z" />
    <glyph glyph-name="tau" unicode="&#x3c4;" horiz-adv-x="538" 
d="M405 36l14 -57c-18 -7 -52 -13 -81 -13c-71 0 -115 38 -115 111v374h-207v62h506v-62h-231v-368c0 -39 21 -57 56 -57c25 0 49 7 58 10z" />
    <glyph glyph-name="upsilon" unicode="&#x3c5;" horiz-adv-x="583" 
d="M291 28c89 0 144 55 144 190v295h68v-311c0 -151 -72 -236 -212 -236s-211 85 -211 236v311h68v-295c0 -135 49 -190 143 -190z" />
    <glyph glyph-name="phi" unicode="&#x3c6;" horiz-adv-x="670" 
d="M369 -240h-68v208c-146 12 -249 104 -249 248v57c0 156 119 250 283 250s283 -95 283 -250v-57c0 -144 -103 -236 -249 -248v-208zM550 269c0 115 -74 182 -181 193v-436c107 12 181 79 181 194v49zM120 220c0 -115 74 -182 181 -194v436c-107 -11 -181 -78 -181 -193
v-49z" />
    <glyph glyph-name="chi" unicode="&#x3c7;" horiz-adv-x="541" 
d="M171 460l101 -260l133 313h76l-167 -357l128 -312c9 -21 16 -33 34 -33c12 0 23 4 32 8l19 -54c-20 -9 -42 -14 -57 -14c-48 0 -72 22 -89 63l-115 290l-159 -344h-77l192 394l-113 279c-8 22 -16 33 -34 33c-12 0 -23 -4 -32 -8l-18 52c20 9 44 13 59 13
c48 0 68 -15 87 -63z" />
    <glyph glyph-name="psi" unicode="&#x3c8;" horiz-adv-x="726" 
d="M397 -240h-68v207c-154 11 -249 99 -249 263v283h69v-279c0 -134 71 -194 180 -204v483h68v-483c109 10 180 70 180 204v279h69v-283c0 -164 -95 -252 -249 -263v-207z" />
    <glyph glyph-name="omega" unicode="&#x3c9;" horiz-adv-x="732" 
d="M368 53h-2c-23 -54 -74 -87 -134 -87c-91 0 -177 64 -177 252v29c0 97 36 203 87 278l55 -29c-43 -77 -73 -145 -73 -253v-21c0 -147 56 -196 118 -196c49 0 90 49 90 115v238h68v-237c0 -66 42 -116 91 -116c62 0 117 49 117 196v21c0 108 -30 176 -72 253l54 29
c51 -75 87 -181 87 -278v-29c0 -188 -85 -252 -176 -252c-60 0 -110 33 -133 87z" />
    <glyph glyph-name="SF100000" unicode="&#x2500;" horiz-adv-x="920" 
d="M920 315v-29h-920v29h920z" />
    <glyph glyph-name="SF110000" unicode="&#x2502;" horiz-adv-x="920" 
d="M475 800v-1000h-29v1000h29z" />
    <glyph glyph-name="SF010000" unicode="&#x250c;" horiz-adv-x="920" 
d="M920 315v-29h-445v-486h-29v515h474z" />
    <glyph glyph-name="SF030000" unicode="&#x2510;" horiz-adv-x="920" 
d="M475 315v-515h-29v486h-446v29h475z" />
    <glyph glyph-name="SF040000" unicode="&#x2518;" horiz-adv-x="920" 
d="M475 800v-514h-475v29h446v485h29z" />
    <glyph glyph-name="SF020000" unicode="&#x2514;" horiz-adv-x="920" 
d="M920 315v-29h-474v514h29v-485h445z" />
    <glyph glyph-name="SF080000" unicode="&#x251c;" horiz-adv-x="920" 
d="M920 315v-29h-445v-486h-29v1000h29v-485h445z" />
    <glyph glyph-name="SF060000" unicode="&#x252c;" horiz-adv-x="920" 
d="M920 315v-29h-445v-486h-29v486h-446v29h920z" />
    <glyph glyph-name="SF090000" unicode="&#x2524;" horiz-adv-x="920" 
d="M475 800v-1000h-29v486h-446v29h446v485h29z" />
    <glyph glyph-name="SF070000" unicode="&#x2534;" horiz-adv-x="920" 
d="M920 315v-29h-920v29h446v485h29v-485h445z" />
    <glyph glyph-name="SF050000" unicode="&#x253c;" horiz-adv-x="920" 
d="M920 314v-29h-445v-485h-29v485h-446v29h446v486h29v-486h445z" />
    <glyph glyph-name="uni2501" unicode="&#x2501;" horiz-adv-x="920" 
d="M920 325v-54h-920v54h920z" />
    <glyph glyph-name="uni2503" unicode="&#x2503;" horiz-adv-x="920" 
d="M487 800v-1000h-54v1000h54z" />
    <glyph glyph-name="uni250F" unicode="&#x250f;" horiz-adv-x="920" 
d="M920 325v-54h-433v-471h-54v525h487z" />
    <glyph glyph-name="uni2513" unicode="&#x2513;" horiz-adv-x="920" 
d="M487 325v-525h-54v471h-433v54h487z" />
    <glyph glyph-name="uni251B" unicode="&#x251b;" horiz-adv-x="920" 
d="M487 800v-529h-487v54h433v475h54z" />
    <glyph glyph-name="uni2517" unicode="&#x2517;" horiz-adv-x="920" 
d="M920 325v-54h-487v529h54v-475h433z" />
    <glyph glyph-name="uni2523" unicode="&#x2523;" horiz-adv-x="920" 
d="M920 325v-54h-433v-471h-54v1000h54v-475h433z" />
    <glyph glyph-name="uni2533" unicode="&#x2533;" horiz-adv-x="920" 
d="M920 325v-54h-433v-471h-54v471h-433v54h920z" />
    <glyph glyph-name="uni252B" unicode="&#x252b;" horiz-adv-x="920" 
d="M487 800v-1000h-54v471h-433v54h433v475h54z" />
    <glyph glyph-name="uni253B" unicode="&#x253b;" horiz-adv-x="920" 
d="M920 325v-54h-920v54h433v475h54v-475h433z" />
    <glyph glyph-name="uni254B" unicode="&#x254b;" horiz-adv-x="920" 
d="M920 325v-54h-433v-471h-54v471h-433v54h433v475h54v-475h433z" />
    <glyph glyph-name="uni2520" unicode="&#x2520;" horiz-adv-x="920" 
d="M920 318v-36h-423v-482h-76v1000h76v-482h423z" />
    <glyph glyph-name="uni252F" unicode="&#x252f;" horiz-adv-x="920" 
d="M920 336v-72h-441v-464h-38v464h-441v72h920z" />
    <glyph glyph-name="uni2528" unicode="&#x2528;" horiz-adv-x="920" 
d="M498 800v-1000h-76v482h-422v36h422v482h76z" />
    <glyph glyph-name="uni2537" unicode="&#x2537;" horiz-adv-x="920" 
d="M920 336v-72h-920v72h441v464h38v-464h441z" />
    <glyph glyph-name="uni253F" unicode="&#x253f;" horiz-adv-x="920" 
d="M920 336v-72h-441v-464h-38v464h-441v72h441v464h38v-464h441z" />
    <glyph glyph-name="uni251D" unicode="&#x251d;" horiz-adv-x="920" 
d="M920 336v-72h-441v-464h-38v1000h38v-464h441z" />
    <glyph glyph-name="uni2530" unicode="&#x2530;" horiz-adv-x="920" 
d="M920 318v-36h-422v-482h-76v482h-422v36h920z" />
    <glyph glyph-name="uni2525" unicode="&#x2525;" horiz-adv-x="920" 
d="M479 800v-1000h-38v464h-441v72h441v464h38z" />
    <glyph glyph-name="uni2538" unicode="&#x2538;" horiz-adv-x="920" 
d="M920 318v-36h-920v36h422v482h76v-482h422z" />
    <glyph glyph-name="uni2542" unicode="&#x2542;" horiz-adv-x="920" 
d="M920 318v-36h-422v-482h-76v482h-422v36h422v482h76v-482h422z" />
    <glyph glyph-name="uni2512" unicode="&#x2512;" horiz-adv-x="920" 
d="M498 318v-518h-76v482h-422v36h498z" />
    <glyph glyph-name="uni2511" unicode="&#x2511;" horiz-adv-x="920" 
d="M479 336v-536h-38v464h-441v72h479z" />
    <glyph glyph-name="uni251A" unicode="&#x251a;" horiz-adv-x="920" 
d="M498 800v-518h-498v36h422v482h76z" />
    <glyph glyph-name="uni2519" unicode="&#x2519;" horiz-adv-x="920" 
d="M479 800v-536h-479v72h441v464h38z" />
    <glyph glyph-name="uni2516" unicode="&#x2516;" horiz-adv-x="920" 
d="M920 318v-36h-498v518h76v-482h422z" />
    <glyph glyph-name="uni2515" unicode="&#x2515;" horiz-adv-x="920" 
d="M920 336v-72h-479v536h38v-464h441z" />
    <glyph glyph-name="uni250E" unicode="&#x250e;" horiz-adv-x="920" 
d="M920 318v-36h-422v-482h-76v518h498z" />
    <glyph glyph-name="uni250D" unicode="&#x250d;" horiz-adv-x="920" 
d="M920 336v-72h-441v-464h-38v536h479z" />
    <glyph glyph-name="uni251E" unicode="&#x251e;" horiz-adv-x="920" 
d="M920 318v-36h-442l1 -482h-38v500h-19v500h76v-482h422z" />
    <glyph glyph-name="uni251F" unicode="&#x251f;" horiz-adv-x="920" 
d="M920 318v-36h-422v-482h-76v500h19v500h38v-482h441z" />
    <glyph glyph-name="uni2521" unicode="&#x2521;" horiz-adv-x="920" 
d="M920 336v-72h-441v-464h-38v500h-19v500h76v-464h422z" />
    <glyph glyph-name="uni2522" unicode="&#x2522;" horiz-adv-x="920" 
d="M920 336v-72h-422v-464h-76v500h19v500h38v-464h441z" />
    <glyph glyph-name="uni2526" unicode="&#x2526;" horiz-adv-x="920" 
d="M498 800v-500h-19v-500h-38v482h-441v36h422v482h76z" />
    <glyph glyph-name="uni2527" unicode="&#x2527;" horiz-adv-x="920" 
d="M498 300v-500h-76v482h-422v36h441v482h38v-500h19z" />
    <glyph glyph-name="uni2529" unicode="&#x2529;" horiz-adv-x="920" 
d="M498 800v-500h-19v-500h-38v464h-441v72h422v464h76z" />
    <glyph glyph-name="uni252A" unicode="&#x252a;" horiz-adv-x="920" 
d="M498 300v-500h-76v464h-422v72h441v464h38v-500h19z" />
    <glyph glyph-name="uni252D" unicode="&#x252d;" horiz-adv-x="920" 
d="M920 318v-36h-441v-482h-38v464h-441v72h460v-18h460z" />
    <glyph glyph-name="uni252E" unicode="&#x252e;" horiz-adv-x="920" 
d="M920 336v-72h-441v-464h-38v482h-441v36h460v18h460z" />
    <glyph glyph-name="uni2531" unicode="&#x2531;" horiz-adv-x="920" 
d="M920 318v-36h-422v-482h-76v464h-422v72h460v-18h460z" />
    <glyph glyph-name="uni2532" unicode="&#x2532;" horiz-adv-x="920" 
d="M920 336v-72h-422v-464h-76v482h-422v36h460v18h460z" />
    <glyph glyph-name="uni2535" unicode="&#x2535;" horiz-adv-x="920" 
d="M920 318v-36h-460v-18h-460v72h441v464h38v-482h441z" />
    <glyph glyph-name="uni2536" unicode="&#x2536;" horiz-adv-x="920" 
d="M920 336v-72h-460v18h-460v36h441v482h38v-464h441z" />
    <glyph glyph-name="uni2539" unicode="&#x2539;" horiz-adv-x="920" 
d="M920 318v-36h-460v-18h-460v72h422v464h76v-482h422z" />
    <glyph glyph-name="uni253A" unicode="&#x253a;" horiz-adv-x="920" 
d="M920 336v-72h-460v18h-460v36h422v482h76v-464h422z" />
    <glyph glyph-name="uni253D" unicode="&#x253d;" horiz-adv-x="920" 
d="M920 318v-36h-441v-482h-38v464h-441v76h441v460h38v-482h441z" />
    <glyph glyph-name="uni253E" unicode="&#x253e;" horiz-adv-x="920" 
d="M920 336v-72h-441v-464h-38v482h-441v36h441v482h38v-464h441z" />
    <glyph glyph-name="uni2540" unicode="&#x2540;" horiz-adv-x="920" 
d="M920 318v-36h-441v-482h-38v482h-441v36h422v482h76v-482h422z" />
    <glyph glyph-name="uni2541" unicode="&#x2541;" horiz-adv-x="920" 
d="M920 318v-36h-422v-482h-76v482h-422v36h441v482h38v-482h441z" />
    <glyph glyph-name="uni2543" unicode="&#x2543;" horiz-adv-x="920" 
d="M920 318v-36h-441v-482h-38v464h-441v72h422v464h76v-482h422z" />
    <glyph glyph-name="uni2544" unicode="&#x2544;" horiz-adv-x="920" 
d="M920 336v-72h-441v-464h-38v482h-441v36h422v482h76v-464h422z" />
    <glyph glyph-name="uni2545" unicode="&#x2545;" horiz-adv-x="920" 
d="M920 318v-36h-422v-482h-76v464h-422v72h441v464h38v-482h441z" />
    <glyph glyph-name="uni2546" unicode="&#x2546;" horiz-adv-x="920" 
d="M920 336v-72h-422v-464h-76v482h-422v36h441v482h38v-464h441z" />
    <glyph glyph-name="uni2547" unicode="&#x2547;" horiz-adv-x="920" 
d="M920 336v-72h-441v-464h-38v464h-441v72h422v464h76v-464h422z" />
    <glyph glyph-name="uni2548" unicode="&#x2548;" horiz-adv-x="920" 
d="M920 336v-72h-422v-464h-76v464h-422v72h441v464h38v-464h441z" />
    <glyph glyph-name="uni2549" unicode="&#x2549;" horiz-adv-x="920" 
d="M920 318v-36h-422v-482h-76v464h-422v72h422v464h76v-482h422z" />
    <glyph glyph-name="uni254A" unicode="&#x254a;" horiz-adv-x="920" 
d="M920 336v-72h-422v-464h-76v482h-422v36h422v482h76v-464h422z" />
    <glyph glyph-name="uni3395" unicode="&#x3395;" horiz-adv-x="910" 
d="M455 513h68v-539h-67v62c-22 -35 -65 -70 -134 -70c-78 0 -118 33 -140 70h-1v-276h-68v753h68v-345c0 -72 48 -140 140 -140c79 0 134 63 134 172v313zM722 -34c-68 0 -119 35 -119 117v432c0 102 24 191 119 191s115 -90 115 -191v-89c0 -169 -57 -263 -166 -311v-22
c0 -45 19 -67 56 -67c31 0 52 10 71 30l34 -45c-23 -29 -63 -45 -110 -45zM671 501v-318c56 24 98 107 98 242v76c0 73 -1 143 -47 143s-51 -70 -51 -143z" />
    <glyph glyph-name="uni3396" unicode="&#x3396;" horiz-adv-x="910" 
d="M734 -34c-68 0 -119 35 -119 117v432c0 102 24 191 119 191s115 -90 115 -191v-89c0 -169 -57 -263 -166 -311v-22c0 -45 19 -67 56 -67c31 0 52 10 71 30l34 -45c-23 -29 -63 -45 -110 -45zM683 501v-318c56 24 98 107 98 242v76c0 73 -1 143 -47 143s-51 -70 -51 -143z
M82 -26v539h62v-56c16 39 49 66 95 66c36 0 75 -13 93 -70c17 39 49 70 103 70c62 0 113 -43 113 -139v-410h-68v387c0 65 -15 98 -62 98c-44 0 -69 -45 -69 -101v-384h-68v392c0 65 -20 93 -58 93c-43 0 -73 -39 -73 -103v-382h-68z" />
    <glyph glyph-name="uni3397" unicode="&#x3397;" horiz-adv-x="910" 
d="M704 -34c-68 0 -119 35 -119 117v432c0 102 24 191 119 191s115 -90 115 -191v-89c0 -169 -57 -263 -166 -311v-22c0 -45 19 -67 56 -67c31 0 52 10 71 30l34 -45c-23 -29 -63 -45 -110 -45zM653 501v-318c56 24 98 107 98 242v76c0 73 -1 143 -47 143s-51 -70 -51 -143z
M423 -26v71h-1c-27 -54 -79 -79 -145 -79c-128 0 -200 84 -200 231v97c0 147 75 229 199 229c89 0 129 -42 146 -76v248h68v-721h-67zM145 284v-77c0 -115 49 -181 135 -181c78 0 142 50 142 145v155c0 63 -55 137 -142 137c-92 0 -135 -65 -135 -179z" />
    <glyph glyph-name="afii61289" unicode="&#x2113;" horiz-adv-x="910" 
d="M482 -34c-68 0 -123 35 -123 117v433c0 102 26 190 121 190c100 0 121 -89 121 -190v-90c0 -169 -63 -263 -172 -311v-19c0 -45 21 -67 58 -67c31 0 54 10 73 30l34 -48c-23 -29 -65 -45 -112 -45zM429 502v-316c56 24 102 104 102 239v77c0 73 -5 138 -51 138
s-51 -65 -51 -138z" />
    <glyph glyph-name="uni3398" unicode="&#x3398;" horiz-adv-x="910" 
d="M712 -34c-68 0 -119 35 -119 117v432c0 102 24 191 119 191s115 -90 115 -191v-89c0 -169 -57 -263 -166 -311v-22c0 -45 19 -67 56 -67c31 0 52 10 71 30l34 -45c-23 -29 -63 -45 -110 -45zM543 513l-187 -202l199 -337h-81l-163 288l-80 -87v-201h-68v721h68v-436
l227 254h85zM661 501v-318c56 24 98 107 98 242v76c0 73 -1 143 -47 143s-51 -70 -51 -143z" />
    <glyph glyph-name="uni33C4" unicode="&#x33c4;" horiz-adv-x="910" 
d="M305 523c79 0 116 -28 148 -55l-35 -51c-36 30 -64 45 -113 45c-91 0 -124 -68 -124 -180v-69c0 -118 34 -185 126 -185c41 0 82 12 124 51l37 -50c-34 -31 -81 -63 -162 -63c-138 0 -194 90 -194 247v67c0 157 63 243 193 243zM679 523c79 0 116 -28 148 -55l-35 -51
c-36 30 -64 45 -113 45c-91 0 -124 -68 -124 -180v-69c0 -118 34 -185 126 -185c41 0 82 12 124 51l37 -50c-34 -31 -81 -63 -162 -63c-138 0 -194 90 -194 247v67c0 157 63 243 193 243z" />
    <glyph glyph-name="uni33A3" unicode="&#x33a3;" horiz-adv-x="910" 
d="M761 736l-23 23c14 18 36 32 66 32c40 0 66 -22 66 -55v-3c0 -18 -8 -38 -34 -49c28 -5 44 -26 44 -52v-4c0 -33 -23 -64 -77 -64c-25 0 -49 9 -70 25l18 30c21 -16 36 -20 52 -20c29 0 38 16 38 36v3c0 19 -12 28 -38 28h-26v33h23c21 0 31 9 31 28v4c0 13 -8 25 -28 25
c-15 0 -30 -5 -42 -20zM41 -26v539h58v-56c10 36 31 66 75 66c32 0 62 -14 74 -70c15 46 41 70 83 70c58 0 91 -39 91 -135v-414h-66v389c0 60 -3 101 -42 101c-36 0 -50 -44 -50 -99v-391h-66v401c0 62 -10 89 -43 89c-38 0 -48 -46 -48 -105v-385h-66zM487 -26v539h58v-56
c10 36 31 66 75 66c32 0 62 -14 74 -70c15 46 41 70 83 70c58 0 90 -39 90 -135v-414h-66v389c0 60 -2 101 -41 101c-36 0 -50 -44 -50 -99v-391h-66v398c0 62 -10 92 -43 92c-38 0 -48 -46 -48 -105v-385h-66z" />
    <glyph glyph-name="uni33A4" unicode="&#x33a4;" horiz-adv-x="910" 
d="M761 736l-23 23c14 18 36 32 66 32c40 0 66 -22 66 -55v-3c0 -18 -8 -38 -34 -49c28 -5 44 -26 44 -52v-4c0 -33 -23 -64 -77 -64c-25 0 -49 9 -70 25l18 30c21 -16 36 -20 52 -20c29 0 38 16 38 36v3c0 19 -12 28 -38 28h-26v33h23c21 0 31 9 31 28v4c0 13 -8 25 -28 25
c-15 0 -30 -5 -42 -20zM224 523c68 0 101 -22 134 -53l-39 -47c-28 30 -55 39 -95 39c-87 0 -112 -68 -112 -180v-69c0 -118 26 -185 114 -185c41 0 76 14 108 49l39 -48c-31 -32 -68 -63 -148 -63c-138 0 -182 90 -182 247v67c0 157 51 243 181 243zM406 -26v539h62v-56
c16 39 49 66 95 66c36 0 75 -13 93 -70c17 39 49 70 103 70c62 0 113 -43 113 -139v-410h-68v387c0 65 -15 98 -62 98c-44 0 -69 -45 -69 -101v-384h-68v392c0 65 -20 93 -58 93c-43 0 -73 -39 -73 -103v-382h-68z" />
    <glyph glyph-name="uni33A5" unicode="&#x33a5;" horiz-adv-x="910" 
d="M775 736l-23 23c14 18 36 32 66 32c40 0 66 -22 66 -55v-3c0 -18 -8 -38 -34 -49c28 -5 44 -26 44 -52v-4c0 -33 -23 -64 -77 -64c-25 0 -49 9 -70 25l18 30c21 -16 36 -20 52 -20c29 0 38 16 38 36v3c0 19 -12 28 -38 28h-26v33h23c21 0 31 9 31 28v4c0 13 -8 25 -28 25
c-15 0 -30 -5 -42 -20zM645 523c122 0 177 -72 177 -186v-363h-68v345c0 87 -24 142 -121 142c-87 0 -136 -71 -138 -133v-354h-68v345c0 87 -24 142 -121 142c-89 0 -138 -74 -138 -137v-350h-68v539h67v-75c24 43 72 85 151 85c86 0 139 -36 163 -98c24 46 78 98 164 98z
" />
    <glyph glyph-name="uni33A6" unicode="&#x33a6;" horiz-adv-x="910" 
d="M761 736l-23 23c14 18 36 32 66 32c40 0 66 -22 66 -55v-3c0 -18 -8 -38 -34 -49c28 -5 44 -26 44 -52v-4c0 -33 -23 -64 -77 -64c-25 0 -49 9 -70 25l18 30c21 -16 36 -20 52 -20c29 0 38 16 38 36v3c0 19 -12 28 -38 28h-26v33h23c21 0 31 9 31 28v4c0 13 -8 25 -28 25
c-15 0 -30 -5 -42 -20zM406 -26v539h62v-56c16 39 49 66 95 66c36 0 75 -13 93 -70c17 39 49 70 103 70c62 0 113 -43 113 -139v-410h-68v387c0 65 -15 98 -62 98c-44 0 -69 -45 -69 -101v-384h-68v392c0 65 -20 93 -58 93c-43 0 -73 -39 -73 -103v-382h-68zM382 513
l-174 -222l178 -317h-71l-147 265l-55 -70v-195h-68v721h68v-435l187 253h82z" />
    <glyph glyph-name="uni3399" unicode="&#x3399;" horiz-adv-x="910" 
d="M369 -26v539h62v-56c16 39 52 66 98 66c36 0 78 -13 96 -70c17 39 52 70 106 70c62 0 116 -43 116 -139v-410h-68v383c0 70 -18 102 -65 102c-44 0 -72 -42 -72 -100v-385h-68v392c0 67 -23 93 -61 93c-43 0 -76 -36 -76 -102v-383h-68zM123 -26v481h-92v58h92v38
c0 117 50 155 137 155c29 0 68 -5 89 -13l-10 -56c-25 7 -47 10 -74 10c-51 0 -74 -26 -74 -99v-35h145v-58h-145v-481h-68z" />
    <glyph glyph-name="uni339A" unicode="&#x339a;" horiz-adv-x="910" 
d="M229 523c85 0 117 -57 117 -177v-372h-68v355c0 77 -3 132 -67 132c-58 0 -82 -69 -82 -132v-355h-68v539h67v-63c14 40 47 73 101 73zM402 -26v539h62v-56c16 39 49 66 95 66c36 0 75 -13 93 -70c17 39 49 70 103 70c62 0 113 -43 113 -139v-410h-68v387
c0 65 -15 98 -62 98c-44 0 -69 -45 -69 -101v-384h-68v392c0 65 -20 93 -58 93c-43 0 -73 -39 -73 -103v-382h-68z" />
    <glyph glyph-name="uni339B" unicode="&#x339b;" horiz-adv-x="910" 
d="M402 -26v539h62v-56c16 39 49 66 95 66c36 0 75 -13 93 -70c17 39 49 70 103 70c62 0 113 -43 113 -139v-410h-68v383c0 68 -14 102 -61 102c-46 0 -70 -46 -70 -102v-383h-68v392c0 65 -19 93 -57 93c-43 0 -74 -40 -74 -104v-381h-68zM61 -240v753h66v-345
c0 -77 6 -142 69 -142c58 0 84 69 84 132v355h66v-539h-67v59c-11 -43 -36 -67 -76 -67c-32 0 -61 12 -76 49v-255h-66z" />
    <glyph glyph-name="uni339C" unicode="&#x339c;" horiz-adv-x="910" 
d="M41 -26v539h58v-56c10 36 31 66 75 66c32 0 62 -14 74 -70c15 46 41 70 83 70c58 0 91 -39 91 -135v-414h-66v389c0 60 -3 101 -42 101c-36 0 -50 -44 -50 -99v-391h-66v401c0 62 -10 89 -43 89c-38 0 -48 -46 -48 -105v-385h-66zM487 -26v539h58v-56c10 36 31 66 75 66
c32 0 62 -14 74 -70c15 46 41 70 83 70c58 0 90 -39 90 -135v-414h-66v389c0 60 -2 101 -41 101c-36 0 -50 -44 -50 -99v-391h-66v398c0 62 -10 92 -43 92c-38 0 -48 -46 -48 -105v-385h-66z" />
    <glyph glyph-name="uni339D" unicode="&#x339d;" horiz-adv-x="910" 
d="M224 523c68 0 101 -22 134 -53l-39 -47c-28 30 -55 39 -95 39c-87 0 -112 -68 -112 -180v-69c0 -118 26 -185 114 -185c41 0 76 14 108 49l39 -48c-31 -32 -68 -63 -148 -63c-138 0 -182 90 -182 247v67c0 157 51 243 181 243zM406 -26v539h62v-56c16 39 49 66 95 66
c36 0 75 -13 93 -70c17 39 49 70 103 70c62 0 113 -43 113 -139v-410h-68v387c0 65 -15 98 -62 98c-44 0 -69 -45 -69 -101v-384h-68v392c0 65 -20 93 -58 93c-43 0 -73 -39 -73 -103v-382h-68z" />
    <glyph glyph-name="uni339E" unicode="&#x339e;" horiz-adv-x="910" 
d="M406 -26v539h62v-56c16 39 49 66 95 66c36 0 75 -13 93 -70c17 39 49 70 103 70c62 0 113 -43 113 -139v-410h-68v387c0 65 -15 98 -62 98c-44 0 -69 -45 -69 -101v-384h-68v392c0 65 -20 93 -58 93c-43 0 -73 -39 -73 -103v-382h-68zM382 513l-174 -222l178 -317h-71
l-147 265l-55 -70v-195h-68v721h68v-435l187 253h82z" />
    <glyph glyph-name="uni339F" unicode="&#x339f;" horiz-adv-x="910" 
d="M728 598l77 85c24 27 25 34 25 44v3c0 11 -6 24 -29 24c-9 0 -26 -2 -44 -23l-25 25c11 15 34 35 70 35c47 0 68 -28 68 -57v-5c-1 -24 -10 -40 -29 -61l-58 -64h94v-35h-149v29zM41 -26v539h58v-56c10 36 31 66 75 66c32 0 62 -14 74 -70c15 46 41 70 83 70
c58 0 91 -39 91 -135v-414h-66v389c0 60 -3 101 -42 101c-36 0 -50 -44 -50 -99v-391h-66v401c0 62 -10 89 -43 89c-38 0 -48 -46 -48 -105v-385h-66zM487 -26v539h58v-56c10 36 31 66 75 66c32 0 62 -14 74 -70c15 46 41 70 83 70c58 0 90 -39 90 -135v-414h-66v389
c0 60 -2 101 -41 101c-36 0 -50 -44 -50 -99v-391h-66v398c0 62 -10 92 -43 92c-38 0 -48 -46 -48 -105v-385h-66z" />
    <glyph glyph-name="uni33A0" unicode="&#x33a0;" horiz-adv-x="910" 
d="M728 598l77 85c24 27 25 34 25 44v3c0 11 -6 24 -29 24c-9 0 -26 -2 -44 -23l-25 25c11 15 34 35 70 35c47 0 68 -28 68 -57v-5c-1 -24 -10 -40 -29 -61l-58 -64h94v-35h-149v29zM224 523c68 0 101 -22 134 -53l-39 -47c-28 30 -55 39 -95 39c-87 0 -112 -68 -112 -180
v-69c0 -118 26 -185 114 -185c41 0 76 14 108 49l39 -48c-31 -32 -68 -63 -148 -63c-138 0 -182 90 -182 247v67c0 157 51 243 181 243zM406 -26v539h62v-56c16 39 49 66 95 66c36 0 75 -13 93 -70c17 39 49 70 103 70c62 0 113 -43 113 -139v-410h-68v387
c0 65 -15 98 -62 98c-44 0 -69 -45 -69 -101v-384h-68v392c0 65 -20 93 -58 93c-43 0 -73 -39 -73 -103v-382h-68z" />
    <glyph glyph-name="uni33A1" unicode="&#x33a1;" horiz-adv-x="910" 
d="M728 598l77 85c24 27 25 34 25 44v3c0 11 -6 24 -29 24c-9 0 -26 -2 -44 -23l-25 25c11 15 34 35 70 35c47 0 68 -28 68 -57v-5c-1 -24 -10 -40 -29 -61l-58 -64h94v-35h-149v29zM645 523c122 0 177 -72 177 -186v-363h-68v345c0 87 -24 142 -121 142
c-87 0 -136 -71 -138 -133v-354h-68v345c0 87 -24 142 -121 142c-89 0 -138 -74 -138 -137v-350h-68v539h67v-75c24 43 72 85 151 85c86 0 139 -36 163 -98c24 46 78 98 164 98z" />
    <glyph glyph-name="uni33A2" unicode="&#x33a2;" horiz-adv-x="910" 
d="M728 598l77 85c24 27 25 34 25 44v3c0 11 -6 24 -29 24c-9 0 -26 -2 -44 -23l-25 25c11 15 34 35 70 35c47 0 68 -28 68 -57v-5c-1 -24 -10 -40 -29 -61l-58 -64h94v-35h-149v29zM406 -26v539h62v-56c16 39 49 66 95 66c36 0 75 -13 93 -70c17 39 49 70 103 70
c62 0 113 -43 113 -139v-410h-68v387c0 65 -15 98 -62 98c-44 0 -69 -45 -69 -101v-384h-68v392c0 65 -20 93 -58 93c-43 0 -73 -39 -73 -103v-382h-68zM382 513l-174 -222l178 -317h-71l-147 265l-55 -70v-195h-68v721h68v-435l187 253h82z" />
    <glyph glyph-name="uni33CA" unicode="&#x33ca;" horiz-adv-x="910" 
d="M296 523c105 0 150 -74 150 -186v-363h-68v346c0 77 -17 141 -96 141c-73 0 -114 -66 -114 -140v-347h-68v721h68v-254c23 48 60 82 128 82zM629 -34c-102 0 -138 67 -138 154v22c0 87 42 148 167 148h85v53c0 84 -27 119 -83 119c-39 0 -71 -15 -114 -49l-35 52
c42 34 85 58 151 58c110 0 148 -63 148 -172v-377h-66v66h-1c-13 -35 -45 -74 -114 -74zM743 142v91h-84c-86 0 -100 -39 -100 -94v-16c0 -70 26 -98 75 -98c64 0 109 50 109 117z" />
    <glyph glyph-name="uni338D" unicode="&#x338d;" horiz-adv-x="910" 
d="M360 513h67v-539h-66v62c-14 -31 -40 -70 -104 -70c-71 0 -101 41 -110 66h-1v-272h-67v753h67v-347c0 -72 32 -138 110 -138c68 0 104 61 104 170v315zM784 -19v74h-1c-20 -45 -58 -79 -122 -79c-125 0 -173 84 -173 231v85c0 147 60 231 172 231c67 0 103 -29 125 -76
v66h66v-530c0 -153 -51 -232 -185 -232c-62 0 -105 21 -150 56l31 53c50 -35 72 -45 119 -45c99 0 118 53 118 166zM555 282v-65c0 -115 23 -181 113 -181c73 0 116 60 116 141v152c0 63 -38 134 -117 134c-81 0 -112 -67 -112 -181z" />
    <glyph glyph-name="uni338E" unicode="&#x338e;" horiz-adv-x="910" 
d="M795 -19v67h-1c-9 -41 -38 -72 -92 -72c-113 0 -138 84 -138 231v88c0 147 41 228 137 228c52 0 79 -23 95 -70v60h66v-536c0 -153 -30 -226 -159 -226c-39 0 -94 15 -135 54l36 53c30 -28 64 -44 99 -44c76 0 92 48 92 167zM631 282v-65c0 -115 6 -181 78 -181
c73 0 86 70 86 151v142c0 63 -16 134 -87 134c-64 0 -77 -67 -77 -181zM61 -26v539h62v-56c16 39 45 66 91 66c36 0 75 -13 93 -70c17 39 45 70 99 70c62 0 113 -43 113 -139v-410h-68v384c0 68 -15 102 -62 102c-43 0 -65 -53 -65 -109v-377h-68v393c0 65 -20 93 -58 93
c-42 0 -69 -40 -69 -104v-382h-68z" />
    <glyph glyph-name="uni338F" unicode="&#x338f;" horiz-adv-x="910" 
d="M784 -19v74h-1c-20 -45 -58 -79 -122 -79c-125 0 -173 84 -173 231v85c0 147 60 231 172 231c67 0 103 -29 125 -76v66h66v-530c0 -153 -51 -232 -185 -232c-62 0 -105 21 -150 56l31 53c50 -35 72 -45 119 -45c99 0 118 53 118 166zM474 513l-187 -202l199 -337h-81
l-163 288l-80 -87v-201h-68v721h68v-438l227 256h85zM555 282v-65c0 -115 23 -181 113 -181c73 0 116 60 116 141v152c0 63 -38 134 -117 134c-81 0 -112 -67 -112 -181z" />
    <glyph glyph-name="uni33CF" unicode="&#x33cf;" horiz-adv-x="910" 
d="M507 513l-187 -202l199 -337h-81l-163 288l-80 -87v-201h-68v721h68v-436l227 254h85zM630 124v331h-100v58h100v139h68v-139h130v-58h-130v-328c0 -73 8 -99 62 -99c25 0 47 5 71 14l14 -56c-24 -12 -57 -17 -90 -17c-91 0 -125 38 -125 155z" />
    <glyph glyph-name="uni3388" unicode="&#x3388;" horiz-adv-x="910" 
d="M227 523c65 0 96 -22 129 -53l-39 -47c-28 30 -52 39 -90 39c-78 0 -107 -68 -107 -180v-69c0 -118 24 -185 109 -185c39 0 71 14 103 49l39 -48c-31 -32 -65 -63 -143 -63c-135 0 -177 90 -177 247v67c0 157 54 243 176 243zM523 -34c-102 0 -138 67 -138 154v22
c0 87 42 148 167 148h85v53c0 84 -27 119 -83 119c-39 0 -71 -15 -114 -49l-35 52c42 34 85 58 151 58c110 0 148 -63 148 -172v-377h-66v66h-1c-13 -35 -45 -74 -114 -74zM637 142v91h-84c-86 0 -100 -39 -100 -94v-16c0 -70 26 -98 75 -98c64 0 109 50 109 117zM847 695
v-721h-68v721h68z" />
    <glyph glyph-name="uni3389" unicode="&#x3389;" horiz-adv-x="910" 
d="M620 -34c-82 0 -102 67 -102 154v22c0 87 42 148 143 148h41v59c0 89 -16 113 -55 113c-26 0 -44 -11 -74 -39l-36 44c24 25 60 56 112 56c86 0 118 -57 118 -166v-383h-62v55h-1c-12 -42 -39 -63 -84 -63zM268 513l-110 -206l114 -333h-70l-80 264l-37 -69v-195h-65v721
h65v-418l113 236h70zM396 523c52 0 82 -18 109 -53l-41 -43c-21 29 -40 35 -63 35c-56 0 -73 -68 -73 -180v-71c0 -150 23 -183 74 -183c31 0 54 15 71 43l42 -42c-23 -35 -59 -63 -117 -63c-115 0 -134 88 -134 245v74c0 157 36 238 132 238zM890 695v-721h-65v721h65z
M702 152v81h-40c-57 0 -76 -39 -76 -94v-16c0 -70 11 -98 45 -98c54 0 71 60 71 127z" />
    <glyph glyph-name="uni33C8" unicode="&#x33c8;" horiz-adv-x="910" 
d="M376 -26v71h-1c-19 -47 -65 -79 -131 -79c-128 0 -186 84 -186 231v97c0 147 67 229 185 229c84 0 115 -42 132 -76v248h68v-721h-67zM126 284v-77c0 -115 35 -181 121 -181c78 0 128 54 128 149v148c0 63 -41 140 -128 140c-88 0 -121 -65 -121 -179zM511 -26v721h143
c143 0 194 -56 194 -174v-21c0 -63 -30 -122 -100 -145c92 -14 128 -66 128 -166v-25c0 -118 -50 -190 -195 -190h-170zM580 321v-285h95c90 0 130 44 130 129v22c0 96 -36 134 -150 134h-75zM649 634h-69v-254h74c66 0 124 32 124 122v18c0 85 -31 114 -129 114z" />
    <glyph glyph-name="uni33A7" unicode="&#x33a7;" horiz-adv-x="910" 
d="M41 -26v539h58v-56c10 36 31 66 75 66c32 0 62 -14 74 -70c15 46 41 70 83 70c58 0 91 -39 91 -135v-414h-66v392c0 60 -4 101 -43 101c-36 0 -49 -44 -49 -99v-394h-66v401c0 62 -11 92 -44 92c-38 0 -47 -46 -47 -105v-388h-66zM635 759h51l-202 -884h-50zM745 22
c49 0 70 32 70 87v11c0 47 -5 74 -66 101c-63 28 -106 56 -106 145v16c0 84 47 141 127 141c46 0 78 -11 104 -37l-31 -44c-19 17 -36 25 -71 25c-49 0 -68 -38 -68 -86v-14c0 -41 9 -66 59 -87c78 -33 112 -70 112 -157v-13c0 -100 -53 -144 -126 -144
c-43 0 -85 11 -120 45l31 44c28 -26 54 -33 85 -33z" />
    <glyph glyph-name="uni33A8" unicode="&#x33a8;" horiz-adv-x="910" 
d="M728 598l77 85c24 27 25 34 25 44v3c0 11 -6 24 -29 24c-9 0 -26 -2 -44 -23l-25 25c11 15 34 35 70 35c47 0 68 -26 68 -55v-5c-1 -24 -10 -42 -29 -63l-58 -64h94v-35h-149v29zM41 -26v539h58v-56c10 36 31 66 75 66c32 0 62 -14 74 -70c15 46 41 70 83 70
c58 0 91 -39 91 -135v-414h-66v392c0 60 -4 101 -43 101c-36 0 -49 -44 -49 -99v-394h-66v401c0 62 -11 92 -44 92c-38 0 -47 -46 -47 -105v-388h-66zM635 759h51l-202 -884h-50zM745 22c49 0 70 32 70 87v11c0 47 -5 74 -66 101c-63 28 -106 56 -106 145v16
c0 84 47 141 127 141c46 0 78 -11 104 -37l-31 -44c-19 17 -36 25 -71 25c-49 0 -68 -38 -68 -86v-14c0 -41 9 -66 59 -87c78 -33 112 -70 112 -157v-13c0 -100 -53 -144 -126 -144c-43 0 -85 11 -120 45l31 44c28 -26 54 -33 85 -33z" />
    <glyph glyph-name="uni33B0" unicode="&#x33b0;" horiz-adv-x="910" 
d="M155 513v-69h1c19 47 68 79 134 79c128 0 183 -84 183 -231v-97c0 -147 -67 -229 -185 -229c-84 0 -115 42 -132 76v-282h-68v753h67zM405 205v77c0 115 -35 181 -121 181c-78 0 -128 -54 -128 -149v-148c0 -63 41 -140 128 -140c88 0 121 65 121 179zM686 27
c75 0 104 41 104 87v10c0 54 -12 68 -115 97c-108 30 -149 57 -149 145v14c0 77 53 143 165 143c68 0 111 -13 155 -46l-31 -51c-45 30 -75 36 -124 36c-68 0 -97 -36 -97 -83v-11c0 -47 20 -63 105 -87c133 -37 159 -68 159 -154v-15c0 -86 -56 -146 -170 -146
c-69 0 -128 20 -176 54l33 55c48 -35 91 -48 141 -48z" />
    <glyph glyph-name="uni33B1" unicode="&#x33b1;" horiz-adv-x="910" 
d="M676 27c75 0 104 41 104 87v10c0 54 -12 68 -115 97c-108 30 -149 57 -149 145v14c0 77 53 143 165 143c68 0 111 -13 155 -46l-31 -51c-45 30 -75 36 -124 36c-68 0 -97 -36 -97 -83v-11c0 -47 20 -63 105 -87c133 -37 159 -68 159 -154v-15c0 -86 -56 -146 -170 -146
c-69 0 -128 20 -176 54l33 55c48 -35 91 -48 141 -48zM292 523c89 0 154 -57 154 -177v-372h-68v355c0 80 -25 132 -100 132c-76 0 -118 -69 -118 -132v-355h-68v539h67v-69c18 40 65 79 133 79z" />
    <glyph glyph-name="uni33B2" unicode="&#x33b2;" horiz-adv-x="910" 
d="M376 513h67v-539h-66v64c-14 -31 -46 -72 -110 -72c-71 0 -101 44 -110 69h-1v-275h-67v753h67v-345c0 -72 33 -140 110 -140c67 0 110 63 110 172v313zM673 27c75 0 104 41 104 87v10c0 54 -12 68 -115 97c-108 30 -149 57 -149 145v14c0 77 53 143 165 143
c68 0 111 -13 155 -46l-31 -51c-45 30 -75 36 -124 36c-68 0 -97 -36 -97 -83v-11c0 -47 20 -63 105 -87c133 -37 159 -68 159 -154v-15c0 -86 -56 -146 -170 -146c-69 0 -128 20 -176 54l33 55c48 -35 91 -48 141 -48z" />
    <glyph glyph-name="uni33B3" unicode="&#x33b3;" horiz-adv-x="910" 
d="M725 27c66 0 94 41 94 87v10c0 48 -2 65 -105 98c-108 35 -139 66 -139 145v13c0 77 52 143 155 143c64 0 105 -15 145 -46l-31 -51c-40 27 -67 36 -111 36c-59 0 -90 -36 -90 -83v-11c0 -41 10 -59 95 -87c130 -43 149 -77 149 -154v-15c0 -86 -55 -146 -160 -146
c-70 0 -118 20 -166 54l33 55c48 -35 83 -48 131 -48zM46 -26v539h62v-56c16 39 49 66 95 66c36 0 75 -13 93 -70c17 39 49 70 103 70c62 0 113 -43 113 -139v-410h-68v387c0 65 -15 98 -62 98c-44 0 -69 -45 -69 -101v-384h-68v392c0 65 -20 93 -58 93
c-43 0 -73 -39 -73 -103v-382h-68z" />
    <glyph glyph-name="uni33B4" unicode="&#x33b4;" horiz-adv-x="910" 
d="M143 513v-69h1c19 47 66 79 132 79c128 0 185 -84 185 -231v-97c0 -147 -67 -229 -185 -229c-84 0 -115 42 -132 76v-282h-68v753h67zM393 205v77c0 115 -35 181 -121 181c-78 0 -128 -54 -128 -149v-148c0 -63 41 -140 128 -140c88 0 121 65 121 179zM612 -26l-185 721
h77l154 -638h1l150 638h73l-182 -721h-88z" />
    <glyph glyph-name="uni33B5" unicode="&#x33b5;" horiz-adv-x="910" 
d="M612 -26l-185 721h77l154 -638h1l150 638h73l-182 -721h-88zM282 523c89 0 151 -57 151 -177v-372h-68v355c0 77 -22 132 -97 132c-67 0 -115 -69 -115 -132v-355h-68v539h67v-70c18 40 62 80 130 80z" />
    <glyph glyph-name="uni33B6" unicode="&#x33b6;" horiz-adv-x="910" 
d="M612 -26l-185 721h77l154 -638h1l150 638h73l-182 -721h-88zM360 513h67v-539h-66v62c-14 -31 -40 -70 -104 -70c-71 0 -101 47 -110 72h-1v-278h-67v753h67v-345c0 -72 33 -140 110 -140c67 0 104 63 104 172v313z" />
    <glyph glyph-name="uni33B7" unicode="&#x33b7;" horiz-adv-x="910" 
d="M659 -26l-135 721h75l106 -635h1l102 635h71l-132 -721h-88zM53 -26v539h62v-56c16 39 49 66 95 66c36 0 75 -13 93 -70c17 39 49 70 103 70c62 0 113 -43 113 -139v-410h-68v387c0 65 -15 98 -62 98c-44 0 -69 -45 -69 -101v-384h-68v392c0 65 -20 93 -58 93
c-43 0 -73 -39 -73 -103v-382h-68z" />
    <glyph glyph-name="uni33B8" unicode="&#x33b8;" horiz-adv-x="910" 
d="M612 -26l-185 721h77l154 -638h1l150 638h73l-182 -721h-88zM440 513l-177 -212l193 -327h-76l-162 273l-65 -78v-195h-68v721h68v-433l204 251h83z" />
    <glyph glyph-name="uni33B9" unicode="&#x33b9;" horiz-adv-x="910" 
d="M246 94l-86 395c-8 36 -15 81 -17 139v-654h-65v721h100l112 -532l111 532h95v-721h-63v641c-1 -51 -8 -92 -15 -126l-86 -395h-86zM656 -26l-135 721h75l106 -635h1l102 635h71l-132 -721h-88z" />
    <glyph glyph-name="uni3380" unicode="&#x3380;" horiz-adv-x="910" 
d="M124 513v-69h1c19 47 64 79 130 79c122 0 177 -84 177 -231v-97c0 -147 -64 -229 -176 -229c-77 0 -114 42 -131 76v-282h-68v753h67zM699 695l187 -721h-73l-54 224h-201l-56 -224h-70l188 721h79zM364 205v77c0 115 -35 181 -115 181c-69 0 -124 -54 -124 -149v-148
c0 -63 46 -140 124 -140c82 0 115 65 115 179zM622 454l-50 -197h172l-47 197c-12 51 -21 86 -38 179c-15 -94 -24 -128 -37 -179z" />
    <glyph glyph-name="uni3381" unicode="&#x3381;" horiz-adv-x="910" 
d="M704 695l187 -721h-73l-54 224h-201l-56 -224h-70l188 721h79zM267 523c89 0 151 -57 151 -177v-372h-68v355c0 77 -22 132 -97 132c-67 0 -115 -69 -115 -132v-355h-68v539h67v-70c18 40 62 80 130 80zM627 454l-50 -197h172l-47 197c-12 51 -21 86 -38 179
c-16 -94 -24 -128 -37 -179z" />
    <glyph glyph-name="uni3382" unicode="&#x3382;" horiz-adv-x="910" 
d="M708 695l187 -721h-73l-54 224h-201l-56 -224h-70l188 721h79zM351 513h67v-539h-66v62c-14 -31 -42 -70 -106 -70c-68 0 -103 41 -112 66h-1v-272h-67v753h67v-345c0 -72 35 -140 112 -140c67 0 106 63 106 172v313zM631 454l-50 -197h172l-47 197
c-12 51 -21 86 -38 179c-16 -94 -24 -128 -37 -179z" />
    <glyph glyph-name="uni3383" unicode="&#x3383;" horiz-adv-x="910" 
d="M704 695l180 -721h-73l-52 228v-4h-193l-52 -224h-70l181 721h79zM41 -26v539h58v-56c10 36 33 66 77 66c32 0 62 -14 74 -70c15 46 43 70 85 70c58 0 91 -39 91 -135v-414h-66v392c0 60 -4 101 -43 101c-36 0 -51 -44 -51 -99v-394h-66v401c0 62 -11 92 -44 92
c-35 0 -49 -46 -49 -105v-388h-66zM627 454l-47 -197h166l-44 197c-12 51 -21 86 -38 179c-16 -94 -25 -128 -37 -179z" />
    <glyph glyph-name="uni3384" unicode="&#x3384;" horiz-adv-x="910" 
d="M697 695l187 -721h-73l-54 224h-201l-56 -224h-70l188 721h79zM412 513l-174 -222l178 -317h-75l-146 262l-52 -67v-195h-68v721h68v-431l184 249h85zM620 454l-50 -197h172l-47 197c-12 51 -21 86 -38 179c-16 -94 -24 -128 -37 -179z" />
    <glyph glyph-name="uni33BA" unicode="&#x33ba;" horiz-adv-x="910" 
d="M111 513v-65h1c18 43 53 75 113 75c111 0 151 -84 151 -231v-97c0 -147 -37 -229 -153 -229c-61 0 -100 38 -111 69v-275h-66v753h65zM309 205v77c0 129 -24 181 -94 181c-65 0 -103 -68 -103 -163v-130c0 -63 22 -144 103 -144c73 0 94 54 94 179zM463 -26l-94 721h65
l72 -641h1l82 641h82l81 -641h1l76 641h63l-101 -721h-80l-81 634l-85 -634h-82z" />
    <glyph glyph-name="uni33BB" unicode="&#x33bb;" horiz-adv-x="910" 
d="M463 -26l-94 721h65l72 -641h1l82 641h82l81 -641h1l76 641h63l-101 -721h-80l-81 634l-85 -634h-82zM229 523c82 0 123 -55 123 -175v-374h-66v357c0 77 -10 130 -74 130c-58 0 -89 -67 -89 -130v-357h-66v539h65v-63c14 40 53 73 107 73z" />
    <glyph glyph-name="uni33BC" unicode="&#x33bc;" horiz-adv-x="910" 
d="M463 -26l-94 721h65l72 -641h1l82 641h82l81 -641h1l76 641h63l-101 -721h-80l-81 634l-85 -634h-82zM61 -240v753h66v-345c0 -77 6 -142 69 -142c58 0 84 69 84 132v355h66v-539h-67v59c-11 -43 -36 -67 -76 -67c-32 0 -61 12 -76 49v-255h-66z" />
    <glyph glyph-name="uni33BD" unicode="&#x33bd;" horiz-adv-x="910" 
d="M497 -26l-87 721h65l62 -636h1l74 636h75l74 -636h1l65 636h63l-91 -721h-80l-71 626l-71 -626h-80zM33 -26v539h58v-56c10 36 31 66 75 66c32 0 62 -14 74 -70c15 46 41 70 83 70c58 0 91 -39 91 -135v-414h-66v392c0 60 -4 101 -43 101c-36 0 -49 -44 -49 -99v-394h-66
v401c0 62 -11 92 -44 92c-38 0 -47 -46 -47 -105v-388h-66z" />
    <glyph glyph-name="uni33BE" unicode="&#x33be;" horiz-adv-x="910" 
d="M492 -26l-87 721h65l62 -636h1l75 636h75l75 -636h1l66 636h63l-92 -721h-80l-72 626l-72 -626h-80zM402 513l-176 -217l180 -322h-74l-150 268l-59 -73v-195h-68v721h68v-432l196 250h83z" />
    <glyph glyph-name="uni33BF" unicode="&#x33bf;" horiz-adv-x="910" 
d="M495 -26l-87 721h65l62 -636h1l74 636h75l74 -636h1l65 636h63l-91 -721h-80l-71 626l-71 -626h-80zM171 94l-59 398c-6 37 -9 96 -11 138v-656h-59v721h96l77 -528l80 528h93v-721h-60v640c-1 -43 -6 -89 -9 -122l-64 -398h-84z" />
    <glyph glyph-name="uni3390" unicode="&#x3390;" horiz-adv-x="910" 
d="M397 -26v342h-229v-342h-70v721h70v-311h229v311h70v-721h-70zM849 513v-50l-258 -429h272v-60h-345v56l254 423h-234v60h311z" />
    <glyph glyph-name="uni3391" unicode="&#x3391;" horiz-adv-x="910" 
d="M556 -26v342h-135v-342h-70v721h70v-311h135v311h70v-721h-70zM318 513l-131 -216l135 -323h-73l-102 256l-37 -61l1 -195h-68v721h68v-422l134 240h73zM873 513v-50l-145 -429h159v-60h-225v56l141 423h-131v60h201z" />
    <glyph glyph-name="uni3392" unicode="&#x3392;" horiz-adv-x="910" 
d="M155 94l-47 398c-4 37 -10 96 -12 138v-656h-60v721h96l67 -528l59 528h93v-721h-61v640c-1 -43 -6 -89 -9 -122l-40 -398h-86zM580 -26v342h-118v-342h-66v721h66v-311h118v311h66v-721h-66zM878 513v-50l-141 -429h155v-60h-220v56l137 423h-127v60h196z" />
    <glyph glyph-name="uni3393" unicode="&#x3393;" horiz-adv-x="910" 
d="M575 -26v342h-130v-342h-67v721h67v-311h130v311h67v-721h-67zM211 706c63 0 101 -23 128 -56l-47 -52c-23 32 -45 42 -77 42c-77 0 -112 -103 -112 -254v-92c0 -196 43 -265 109 -265c26 0 48 9 57 21v244h-72v62h140v-335c-17 -31 -64 -58 -128 -58
c-131 0 -177 122 -177 331v89c0 204 57 323 179 323zM878 513v-50l-141 -429h155v-60h-220v56l137 423h-127v60h196z" />
    <glyph glyph-name="uni3394" unicode="&#x3394;" horiz-adv-x="910" 
d="M556 -26v342h-136v-342h-70v721h70v-311h136v311h70v-721h-70zM18 695h307v-62h-120v-659h-68v659h-119v62zM873 513v-50l-145 -429h159v-60h-225v56l141 423h-131v60h201z" />
    <glyph glyph-name="uni2126" unicode="&#x2126;" horiz-adv-x="910" 
d="M90 -26v58h198c-73 43 -130 141 -130 259v99c0 197 118 316 297 316c178 0 297 -119 297 -316v-99c0 -119 -56 -216 -130 -259h197v-58h-283v64c65 33 145 124 145 256v90c0 172 -92 259 -226 259s-226 -87 -226 -259v-90c0 -132 64 -223 144 -256v-64h-283z" />
    <glyph glyph-name="uni33C0" unicode="&#x33c0;" horiz-adv-x="910" 
d="M311 -26l-146 262l-52 -67v-195h-68v721h68v-431l184 249h85l-174 -222l146 -261h159c-73 50 -84 167 -84 261v99c0 197 65 316 206 316c144 0 206 -119 206 -316v-99c0 -95 -10 -200 -84 -261h137v-56h-223v62c65 33 101 135 101 261v88c0 172 -50 259 -137 259
s-137 -87 -137 -259v-88c0 -126 20 -228 100 -261v-62h-287z" />
    <glyph glyph-name="uni33C1" unicode="&#x33c1;" horiz-adv-x="910" 
d="M171 94l-59 398c-6 37 -9 96 -11 138v-656h-59v721h96l77 -528l80 528h93v-665h135c-73 50 -84 167 -84 261v99c0 197 65 316 206 316c144 0 206 -119 206 -316v-99c0 -95 -10 -200 -84 -261h137v-56h-223v62c65 33 101 135 101 261v88c0 172 -50 259 -137 259
s-137 -87 -137 -259v-88c0 -126 20 -228 100 -261v-62h-280v637c-1 -42 -4 -87 -9 -119l-64 -398h-84z" />
    <glyph glyph-name="uni338A" unicode="&#x338a;" horiz-adv-x="910" 
d="M154 513v-69h1c19 47 66 79 132 79c128 0 179 -84 179 -231v-97c0 -147 -60 -229 -178 -229c-84 0 -116 42 -133 76v-282h-68v753h67zM398 205v77c0 115 -31 181 -117 181c-75 0 -126 -56 -126 -151v-144c0 -63 42 -142 126 -142c88 0 117 65 117 179zM599 -26h-70v721
h345v-62h-275v-276h254v-62h-254v-321z" />
    <glyph glyph-name="uni338B" unicode="&#x338b;" horiz-adv-x="910" 
d="M599 -26h-70v721h345v-62h-275v-276h254v-62h-254v-321zM282 523c89 0 151 -57 151 -177v-372h-68v355c0 77 -22 132 -97 132c-67 0 -115 -69 -115 -132v-355h-68v539h67v-70c18 40 62 80 130 80z" />
    <glyph glyph-name="uni338C" unicode="&#x338c;" horiz-adv-x="910" 
d="M599 -26h-70v721h345v-62h-275v-276h254v-62h-254v-321zM375 513h67v-539h-66v62c-14 -31 -44 -70 -108 -70c-71 0 -105 47 -114 72h-1v-278h-67v753h67v-345c0 -72 37 -140 114 -140c67 0 108 63 108 172v313z" />
    <glyph glyph-name="uni33D6" unicode="&#x33d6;" horiz-adv-x="910" 
d="M42 -26v539h58v-56c10 36 31 66 75 66c32 0 62 -14 74 -70c15 46 41 70 83 70c58 0 91 -39 91 -135v-414h-66v392c0 60 -4 101 -43 101c-36 0 -49 -44 -49 -99v-394h-66v401c0 62 -11 92 -44 92c-38 0 -47 -46 -47 -105v-388h-66zM871 695v-721h-66v721h66zM612 523
c111 0 139 -90 139 -245v-67c0 -155 -28 -245 -139 -245s-139 90 -139 245v67c0 156 28 245 139 245zM612 26c67 0 73 89 73 189v59c0 100 -6 189 -73 189s-73 -89 -73 -189v-59c0 -100 6 -189 73 -189z" />
    <glyph glyph-name="uni33C5" unicode="&#x33c5;" horiz-adv-x="910" 
d="M261 523c79 0 116 -28 148 -55l-35 -51c-36 30 -64 45 -113 45c-91 0 -124 -68 -124 -180v-69c0 -118 34 -185 126 -185c41 0 82 12 124 51l37 -50c-34 -31 -81 -63 -162 -63c-138 0 -194 90 -194 247v67c0 157 63 243 193 243zM762 -26v71h-1c-19 -47 -65 -79 -131 -79
c-128 0 -186 84 -186 231v97c0 147 67 229 185 229c84 0 115 -42 132 -76v248h68v-721h-67zM512 284v-77c0 -115 35 -181 121 -181c78 0 128 54 128 149v148c0 63 -41 140 -128 140c-88 0 -121 -65 -121 -179z" />
    <glyph glyph-name="uni33AD" unicode="&#x33ad;" horiz-adv-x="910" 
d="M294 512l-15 -66c-15 6 -29 9 -42 9c-76 0 -102 -90 -102 -172v-309h-66v539h65v-91c16 62 52 101 109 101c22 0 32 -3 51 -11zM380 -34c-82 0 -106 67 -106 154v22c0 87 46 148 147 148h42v59c0 84 -14 113 -53 113c-26 0 -44 -11 -74 -39l-36 44c24 25 60 56 112 56
c86 0 118 -57 118 -166v-383h-64v55h-1c-12 -42 -40 -63 -85 -63zM463 152v81h-41c-57 0 -80 -39 -80 -94v-16c0 -70 15 -98 49 -98c54 0 72 60 72 127zM778 468v259h66v-753h-60v58c-11 -40 -51 -66 -91 -66c-79 0 -117 67 -117 218v118c0 169 49 221 120 221
c38 0 72 -17 82 -55zM642 294v-97c0 -115 18 -170 63 -170c55 0 73 66 73 131v165c0 63 -18 139 -65 139c-42 0 -71 -25 -71 -168z" />
    <glyph glyph-name="uni33AE" unicode="&#x33ae;" horiz-adv-x="910" 
d="M478 478v249h53v-753h-49v48c-7 -42 -25 -56 -49 -56c-51 0 -75 67 -75 218v118c0 169 31 221 77 221c15 0 37 -5 43 -45zM231 -34c-53 0 -69 67 -69 154v22c0 87 30 148 95 148h18v59c0 84 0 113 -25 113c-17 0 -28 -11 -48 -39l-23 44c16 25 39 56 73 56
c55 0 76 -57 76 -166v-383h-52v45c-8 -42 -22 -53 -45 -53zM790 23c40 0 50 32 50 87v11c0 47 -6 70 -41 97c-45 35 -82 58 -82 147v16c0 84 39 141 103 141c37 0 61 -11 81 -37l-29 -44c-15 17 -25 25 -51 25c-33 0 -46 -38 -46 -86v-14c0 -41 9 -63 35 -84
c53 -43 86 -71 86 -158v-13c0 -100 -42 -145 -102 -145c-45 0 -69 16 -94 44l33 43c22 -26 37 -30 57 -30zM717 759h43l-192 -884h-42zM175 512l-9 -66c-10 6 -19 9 -27 9c-50 0 -56 -90 -56 -172v-309h-53v539h52v-91c10 62 24 101 60 101c15 0 21 -3 33 -11zM410 294v-97
c0 -115 2 -170 31 -170c35 0 37 76 37 141v155c0 63 -2 139 -32 139c-27 0 -36 -25 -36 -168zM275 152v81h-17c-37 0 -42 -39 -42 -94v-16c0 -70 4 -98 27 -98c31 0 32 60 32 127z" />
    <glyph glyph-name="uni33AF" unicode="&#x33af;" horiz-adv-x="910" 
d="M762 598l77 85c24 27 25 34 25 44v3c0 11 -6 24 -29 24c-9 0 -26 -2 -44 -23l-25 25c11 15 34 35 70 35c47 0 68 -26 68 -55v-5c-1 -24 -10 -42 -29 -63l-58 -64h94v-35h-149v29zM478 478v249h53v-753h-49v48c-7 -42 -25 -56 -49 -56c-51 0 -75 67 -75 218v118
c0 169 31 221 77 221c15 0 37 -5 43 -45zM231 -34c-53 0 -69 67 -69 154v22c0 87 30 148 95 148h18v59c0 84 0 113 -25 113c-17 0 -28 -11 -48 -39l-23 44c16 25 39 56 73 56c55 0 76 -57 76 -166v-383h-52v45c-8 -42 -22 -53 -45 -53zM790 23c40 0 50 32 50 87v11
c0 47 -6 70 -41 97c-45 35 -82 58 -82 147v16c0 84 39 141 103 141c37 0 61 -11 81 -37l-29 -44c-15 17 -25 25 -51 25c-33 0 -46 -38 -46 -86v-14c0 -41 9 -63 35 -84c53 -43 86 -71 86 -158v-13c0 -100 -42 -145 -102 -145c-45 0 -69 16 -94 44l33 43
c22 -26 37 -30 57 -30zM717 759h43l-192 -884h-42zM175 512l-9 -66c-10 6 -19 9 -27 9c-50 0 -56 -90 -56 -172v-309h-53v539h52v-91c10 62 24 101 60 101c15 0 21 -3 33 -11zM410 294v-97c0 -115 2 -170 31 -170c35 0 37 76 37 141v155c0 63 -2 139 -32 139
c-27 0 -36 -25 -36 -168zM275 152v81h-17c-37 0 -42 -39 -42 -94v-16c0 -70 4 -98 27 -98c31 0 32 60 32 127z" />
    <glyph glyph-name="uni33DB" unicode="&#x33db;" horiz-adv-x="910" 
d="M322 27c75 0 104 41 104 87v10c0 54 -12 68 -115 97c-108 30 -149 57 -149 145v14c0 77 53 143 165 143c68 0 111 -13 155 -46l-31 -51c-45 30 -75 36 -124 36c-68 0 -97 -36 -97 -83v-11c0 -47 20 -63 105 -87c133 -37 159 -68 159 -154v-15c0 -86 -56 -146 -170 -146
c-69 0 -128 20 -176 54l33 55c48 -35 91 -48 141 -48zM807 513l-15 -67c-15 6 -27 8 -44 8c-76 0 -114 -89 -114 -171v-309h-66v539h65v-91c16 62 64 101 121 101c22 0 34 -2 53 -10z" />
    <glyph glyph-name="uni33A9" unicode="&#x33a9;" horiz-adv-x="910" 
d="M641 -34c-102 0 -138 67 -138 154v22c0 87 42 148 167 148h85v53c0 84 -27 119 -83 119c-39 0 -71 -15 -114 -49l-35 52c42 34 85 58 151 58c110 0 148 -63 148 -172v-377h-66v66h-1c-13 -35 -45 -74 -114 -74zM755 142v91h-84c-86 0 -100 -39 -100 -94v-16
c0 -70 26 -98 75 -98c64 0 109 50 109 117zM113 -26v721h164c153 0 211 -88 211 -206v-21c0 -117 -64 -209 -211 -209h-94v-285h-70zM271 632h-88v-310h77c124 0 157 58 157 148v18c0 85 -33 144 -146 144z" />
    <glyph glyph-name="uni33AA" unicode="&#x33aa;" horiz-adv-x="910" 
d="M337 -26v721h116c138 0 169 -88 169 -206v-21c0 -117 -44 -209 -169 -209h-46v-285h-70zM721 -34c-82 0 -102 67 -102 154v22c0 87 42 148 143 148h39v59c0 84 -14 113 -53 113c-26 0 -44 -11 -74 -39l-36 44c24 25 60 56 112 56c86 0 118 -57 118 -166v-383h-64v55h-1
c-12 -42 -37 -63 -82 -63zM311 513l-112 -200l116 -339h-71l-83 271l-42 -76l1 -195h-66v721h66v-417l119 235h72zM447 632h-40v-310h29c98 0 115 58 115 148v18c0 85 -11 144 -104 144zM801 152v81h-38c-57 0 -76 -39 -76 -94v-16c0 -70 11 -98 45 -98c54 0 69 60 69 127z
" />
    <glyph glyph-name="uni33AB" unicode="&#x33ab;" horiz-adv-x="910" 
d="M151 94l-47 398c-4 37 -9 96 -11 138v-656h-61v721h96l67 -528l59 528h93v-721h-61v640c-1 -43 -6 -89 -9 -122l-40 -398h-86zM394 -26v721h106c118 0 149 -72 149 -202v-29c0 -155 -66 -205 -153 -205h-32v-285h-70zM701 432l-38 44c22 26 59 47 101 47
c86 0 115 -57 115 -166v-383h-64v55h-1c-12 -42 -34 -63 -79 -63c-82 0 -102 67 -102 154v22c0 87 42 148 143 148h36v59c0 84 -11 113 -50 113c-21 0 -40 -10 -61 -30zM494 632h-30v-310h19c70 0 95 39 95 144v26c0 93 -12 140 -84 140zM812 152v81h-35
c-57 0 -76 -39 -76 -94v-16c0 -70 11 -98 45 -98c54 0 66 60 66 127z" />
    <glyph glyph-name="uni33AC" unicode="&#x33ac;" horiz-adv-x="910" 
d="M388 -26v721h112c118 0 149 -72 149 -202v-29c0 -155 -66 -205 -153 -205h-38v-285h-70zM494 632h-36v-310h25c70 0 95 39 95 144v26c0 93 -12 140 -84 140zM701 432l-38 44c22 26 59 47 101 47c86 0 115 -57 115 -166v-383h-64v55h-1c-12 -42 -34 -63 -79 -63
c-82 0 -102 67 -102 154v22c0 87 42 148 143 148h36v59c0 84 -11 113 -50 113c-21 0 -40 -10 -61 -30zM812 152v81h-35c-57 0 -76 -39 -76 -94v-16c0 -70 11 -98 45 -98c54 0 66 60 66 127zM211 706c63 0 101 -23 128 -56l-47 -52c-23 32 -45 42 -77 42
c-77 0 -112 -103 -112 -254v-92c0 -196 43 -265 109 -265c26 0 48 9 57 21v244h-72v62h140v-335c-17 -31 -64 -58 -128 -58c-131 0 -177 122 -177 331v89c0 204 57 323 179 323z" />
    <glyph glyph-name="uni33DD" unicode="&#x33dd;" horiz-adv-x="910" 
d="M96 -26l-84 721h66l62 -634h1l72 634h79l74 -634h1l66 634h64l-89 -721h-84l-72 626l-71 -626h-85zM579 696v-252h1c19 47 63 79 127 79c119 0 170 -87 170 -231v-97c0 -144 -60 -229 -169 -229c-82 0 -111 42 -128 76v-68h-66v722h65zM809 205v77
c0 112 -31 181 -108 181c-69 0 -121 -54 -121 -149v-148c0 -63 43 -140 121 -140c79 0 108 68 108 179z" />
    <glyph glyph-name="uni33D0" unicode="&#x33d0;" horiz-adv-x="910" 
d="M224 695v-721h-68v721h68zM317 -26v539h62v-56c16 39 49 66 95 66c36 0 75 -13 93 -70c17 39 49 70 103 70c62 0 113 -43 113 -139v-410h-68v387c0 65 -15 98 -62 98c-44 0 -69 -45 -69 -101v-384h-68v392c0 65 -20 93 -58 93c-43 0 -73 -39 -73 -103v-382h-68z" />
    <glyph glyph-name="uni33D3" unicode="&#x33d3;" horiz-adv-x="910" 
d="M274 695v-721h-68v721h68zM739 513l-155 -260l164 -279h-80l-129 233l-131 -233h-77l166 279l-155 260h77l124 -216l120 216h76z" />
    <glyph glyph-name="uni33C3" unicode="&#x33c3;" horiz-adv-x="910" 
d="M65 -26v721h143c143 0 194 -56 194 -174v-21c0 -63 -30 -122 -100 -145c92 -14 128 -66 128 -166v-25c0 -118 -50 -190 -195 -190h-170zM134 321v-285h95c90 0 130 44 130 129v22c0 96 -36 134 -150 134h-75zM203 634h-69v-254h74c66 0 124 32 124 122v18
c0 85 -31 114 -129 114zM794 -240v285h-1c-19 -47 -65 -79 -131 -79c-128 0 -186 84 -186 231v97c0 147 67 229 185 229c84 0 115 -42 132 -76v66h68v-753h-67zM544 284v-77c0 -115 35 -181 121 -181c78 0 128 54 128 149v148c0 63 -41 140 -128 140
c-88 0 -121 -65 -121 -179z" />
    <glyph glyph-name="uni33C9" unicode="&#x33c9;" horiz-adv-x="910" 
d="M292 706c67 0 112 -17 154 -56l-47 -54c-34 31 -59 42 -107 42c-99 0 -152 -101 -152 -252v-92c0 -196 65 -264 151 -264c38 0 73 9 92 21v244h-93v62h162v-340c-37 -35 -90 -54 -166 -54c-152 0 -219 122 -219 331v89c0 204 84 323 225 323zM473 513h71l124 -453
l137 453h70l-250 -762l-58 21l64 193z" />
    <glyph glyph-name="uni33DC" unicode="&#x33dc;" horiz-adv-x="910" 
d="M268 28c101 0 150 53 150 124v19c0 62 3 98 -147 139c-168 46 -202 108 -202 193v20c0 109 81 183 206 183c92 0 135 -22 184 -57l-33 -57c-46 36 -81 50 -151 50c-75 0 -135 -44 -135 -119v-17c0 -56 22 -95 153 -132c180 -51 196 -104 196 -201v-21
c0 -107 -74 -189 -218 -189c-84 0 -151 26 -215 78l36 59c62 -55 128 -72 176 -72zM722 -26h-78l-152 539h70l123 -467l118 467h68z" />
    <glyph glyph-name="uni33C6" unicode="&#x33c6;" horiz-adv-x="910" 
d="M824 38c-13 -43 -43 -62 -81 -62c-75 0 -105 52 -105 221v105c0 151 32 221 115 221c40 0 67 -19 77 -57v47h58v-539c0 -153 -22 -223 -131 -223c-31 0 -70 9 -103 44l35 49c30 -28 55 -31 66 -31c65 0 69 47 69 166v59zM650 513l-110 -209l109 -330h-64l-81 261l-35 -66
v-195h-62v721h62v-418l116 236h65zM702 292v-87c0 -143 15 -171 56 -171c47 0 66 66 66 129v171c0 65 -6 133 -66 133c-45 0 -56 -60 -56 -175zM144 776c46 0 79 -20 106 -55l-41 -39c-21 29 -46 35 -63 35c-50 0 -73 -50 -73 -162v-16c0 -150 29 -175 74 -175
c25 0 54 15 71 43l41 -35c-23 -35 -64 -68 -116 -68c-103 0 -133 78 -133 235v19c0 157 47 218 134 218zM357 759h48l-192 -884h-47z" />
    <glyph glyph-name="AE" unicode="&#xc6;" horiz-adv-x="979" 
d="M908 695v-62h-341v-258h320v-62h-320v-277h348v-62h-418v224h-262l-138 -224h-81l448 721h444zM443 534l-170 -275h224v374c-12 -27 -30 -59 -54 -99z" />
    <glyph glyph-name="Eth" unicode="&#xd0;" horiz-adv-x="680" 
d="M10 318v59h85v318h225c182 0 292 -110 292 -309v-103c0 -199 -110 -309 -292 -309h-225v344h-85zM165 633v-256h173v-59h-173v-282h156c129 0 221 80 221 252v93c0 172 -92 252 -221 252h-156z" />
    <glyph glyph-name="ordfeminine" unicode="&#xaa;" horiz-adv-x="445" 
d="M194 277c-85 0 -142 47 -142 125v18c0 73 50 124 157 124h116v33c0 61 -30 92 -97 92c-49 0 -88 -17 -126 -44l-33 50c42 29 92 54 160 54c97 0 162 -52 162 -139v-306h-65v53c-8 -15 -25 -29 -45 -40c-23 -13 -52 -20 -87 -20zM325 429v59h-115c-66 0 -92 -27 -92 -72
v-11c0 -49 41 -70 84 -70c36 0 64 9 88 27c23 14 35 35 35 67z" />
    <glyph glyph-name="Hbar" unicode="&#x126;" horiz-adv-x="691" 
d="M531 -26v323h-371v-323h-70v516h-70v59h70v146h70v-146h371v146h70v-146h70v-59h-70v-516h-70zM160 490v-123h371v123h-371z" />
    <glyph glyph-name="IJ" unicode="&#x132;" horiz-adv-x="689" 
d="M83 -26v721h70v-721h-70zM539 172v523h70v-530c0 -160 -86 -202 -184 -202c-59 0 -122 14 -169 55l34 57c42 -34 85 -46 131 -46c85 0 118 44 118 143z" />
    <glyph glyph-name="Ldot" unicode="&#x13f;" horiz-adv-x="534" 
d="M83 695h70v-659h361v-62h-431v721zM363 311v100h101v-100h-101z" />
    <glyph glyph-name="Lslash" unicode="&#x141;" horiz-adv-x="563" 
d="M112 695h70v-350l204 116l24 -47l-228 -130v-248h361v-62h-431v270l-78 -44l-24 47l102 58v390z" />
    <glyph glyph-name="Oslash" unicode="&#xd8;" horiz-adv-x="692" 
d="M87 -37l-43 38l69 84c-31 53 -48 120 -48 200v99c0 197 102 322 281 322c88 0 158 -31 206 -86l70 84l43 -38l-79 -96c27 -51 41 -114 41 -186v-99c0 -197 -103 -322 -281 -322c-83 0 -149 27 -197 75zM346 643c-128 0 -210 -93 -210 -265v-87c0 -58 9 -107 26 -146
l345 419c-37 52 -92 79 -161 79zM346 26c128 0 210 93 210 265v87c0 50 -7 94 -20 130l-342 -416c36 -44 88 -66 152 -66z" />
    <glyph glyph-name="OE" unicode="&#x152;" horiz-adv-x="965" 
d="M894 695v-62h-341v-258h320v-62h-320v-277h348v-62l-525 -1c-211 0 -311 119 -311 316v91c0 197 102 315 311 315h518zM376 36h107v597h-107c-161 0 -240 -87 -240 -259v-79c0 -172 81 -259 240 -259z" />
    <glyph glyph-name="ordmasculine" unicode="&#xba;" horiz-adv-x="467" 
d="M234 729c118 0 189 -73 189 -199v-54c0 -126 -71 -199 -189 -199s-190 73 -190 199v54c0 127 72 199 190 199zM234 336c75 0 123 47 123 145v44c0 97 -48 145 -123 145c-74 0 -123 -48 -123 -145v-44c0 -98 49 -145 123 -145z" />
    <glyph glyph-name="Thorn" unicode="&#xde;" horiz-adv-x="598" 
d="M83 -26v721h70v-136h174c153 0 231 -88 231 -206v-21c0 -117 -84 -209 -231 -209h-174v-149h-70zM321 496h-168v-310h157c124 0 177 58 177 148v18c0 85 -53 144 -166 144z" />
    <glyph glyph-name="Tbar" unicode="&#x166;" horiz-adv-x="571" 
d="M20 695h531v-62h-231v-264h152v-59h-152v-336h-70v336h-152v59h152v264h-230v62z" />
    <glyph glyph-name="Eng" unicode="&#x14a;" horiz-adv-x="681" 
d="M83 -26v721h83l331 -533c12 -20 21 -36 34 -67v600h67v-787c0 -117 -48 -157 -138 -157c-29 0 -70 5 -91 13l10 56c25 -7 49 -10 76 -10c54 0 76 28 76 101v68l-348 561c-13 21 -20 35 -33 65v-631h-67z" />
    <glyph glyph-name="uni3260" unicode="&#x3260;" horiz-adv-x="910" 
d="M654 78h-69v354h-362v61h431v-415zM832 306c0 220 -159 381 -377 381s-377 -161 -377 -381s159 -381 377 -381s377 161 377 381zM888 306c0 -250 -184 -434 -433 -434c-250 0 -433 184 -433 434c0 249 183 434 433 434c249 0 433 -185 433 -434z" />
    <glyph glyph-name="uni3261" unicode="&#x3261;" horiz-adv-x="910" 
d="M266 520h69v-343h356v-63h-425v406zM832 306c0 220 -159 381 -377 381s-377 -161 -377 -381s159 -381 377 -381s377 161 377 381zM888 306c0 -250 -184 -434 -433 -434c-250 0 -433 184 -433 434c0 249 183 434 433 434c249 0 433 -185 433 -434z" />
    <glyph glyph-name="uni3262" unicode="&#x3262;" horiz-adv-x="910" 
d="M677 97h-425v420h415v-63h-346v-294h356v-63zM832 306c0 220 -159 381 -377 381s-377 -161 -377 -381s159 -381 377 -381s377 161 377 381zM888 306c0 -250 -184 -434 -433 -434c-250 0 -433 184 -433 434c0 249 183 434 433 434c249 0 433 -185 433 -434z" />
    <glyph glyph-name="uni3263" unicode="&#x3263;" horiz-adv-x="910" 
d="M680 79h-427v255h342v125h-342v62h412v-249h-342v-131h357v-62zM832 306c0 220 -159 381 -377 381s-377 -161 -377 -381s159 -381 377 -381s377 161 377 381zM888 306c0 -250 -184 -434 -433 -434c-250 0 -433 184 -433 434c0 249 183 434 433 434
c249 0 433 -185 433 -434z" />
    <glyph glyph-name="uni3264" unicode="&#x3264;" horiz-adv-x="910" 
d="M669 96h-428v416h428v-416zM599 159v290h-288v-290h288zM832 306c0 220 -159 381 -377 381s-377 -161 -377 -381s159 -381 377 -381s377 161 377 381zM888 306c0 -250 -184 -434 -433 -434c-250 0 -433 184 -433 434c0 249 183 434 433 434c249 0 433 -185 433 -434z" />
    <glyph glyph-name="uni3265" unicode="&#x3265;" horiz-adv-x="910" 
d="M665 95h-420v428h69v-151h282v151h69v-428zM596 157v154h-282v-154h282zM832 306c0 220 -159 381 -377 381s-377 -161 -377 -381s159 -381 377 -381s377 161 377 381zM888 306c0 -250 -184 -434 -433 -434c-250 0 -433 184 -433 434c0 249 183 434 433 434
c249 0 433 -185 433 -434z" />
    <glyph glyph-name="uni3266" unicode="&#x3266;" horiz-adv-x="910" 
d="M832 306c0 220 -159 381 -377 381s-377 -161 -377 -381s159 -381 377 -381s377 161 377 381zM888 306c0 -250 -184 -434 -433 -434c-250 0 -433 184 -433 434c0 249 183 434 433 434c249 0 433 -185 433 -434zM454 305c-18 -30 -34 -48 -78 -89
c-31 -28 -94 -80 -138 -115l-44 51c45 34 114 91 148 122c59 54 76 82 76 150v111h71v-111c0 -68 17 -96 76 -150c34 -31 103 -88 148 -122l-44 -51c-44 35 -107 87 -138 115c-44 41 -59 59 -77 89z" />
    <glyph glyph-name="uni3267" unicode="&#x3267;" horiz-adv-x="910" 
d="M832 306c0 220 -159 381 -377 381s-377 -161 -377 -381s159 -381 377 -381s377 161 377 381zM888 306c0 -250 -184 -434 -433 -434c-250 0 -433 184 -433 434c0 249 183 434 433 434c249 0 433 -185 433 -434zM455 84c-139 0 -223 96 -223 194v56c0 98 84 194 223 194
s223 -96 223 -194v-56c0 -98 -84 -194 -223 -194zM455 463c-103 0 -153 -64 -153 -136v-42c0 -72 53 -136 153 -136s153 64 153 136v42c0 72 -50 136 -153 136z" />
    <glyph glyph-name="uni3268" unicode="&#x3268;" horiz-adv-x="910" 
d="M888 306c0 -250 -184 -434 -433 -434c-250 0 -433 184 -433 434c0 249 183 434 433 434c249 0 433 -185 433 -434zM832 306c0 220 -159 381 -377 381s-377 -161 -377 -381s159 -381 377 -381s377 161 377 381zM216 447v61h478v-61h-204v-26c0 -84 8 -101 73 -158
c34 -30 103 -78 151 -112l-36 -52c-51 37 -120 86 -154 115c-23 19 -56 49 -67 70h-2c-11 -21 -44 -51 -67 -70c-34 -29 -103 -78 -154 -115l-38 52c48 34 117 82 151 112c65 57 73 74 73 157v27h-204z" />
    <glyph glyph-name="uni3269" unicode="&#x3269;" horiz-adv-x="910" 
d="M888 306c0 -250 -184 -434 -433 -434c-250 0 -433 184 -433 434c0 249 183 434 433 434c249 0 433 -185 433 -434zM832 306c0 220 -159 381 -377 381s-377 -161 -377 -381s159 -381 377 -381s377 161 377 381zM456 263c-4 -13 -43 -47 -91 -85c-29 -23 -88 -67 -123 -90
l-39 51c47 32 108 78 145 109c63 53 72 77 72 143v24h-206v61h206v92h71v-92h206v-61h-206v-24c0 -66 9 -90 72 -143c37 -31 98 -77 145 -109l-39 -51c-35 23 -95 68 -124 91c-48 38 -85 71 -89 84z" />
    <glyph glyph-name="uni326A" unicode="&#x326a;" horiz-adv-x="910" 
d="M888 306c0 -250 -184 -434 -433 -434c-250 0 -433 184 -433 434c0 249 183 434 433 434c249 0 433 -185 433 -434zM832 306c0 220 -159 381 -377 381s-377 -161 -377 -381s159 -381 377 -381s377 161 377 381zM673 88h-69v172l-380 -11l-2 61l382 9v136h-369v61h438v-428
z" />
    <glyph glyph-name="uni326B" unicode="&#x326b;" horiz-adv-x="910" 
d="M832 306c0 220 -159 381 -377 381s-377 -161 -377 -381s159 -381 377 -381s377 161 377 381zM888 306c0 -250 -184 -434 -433 -434c-250 0 -433 184 -433 434c0 249 183 434 433 434c249 0 433 -185 433 -434zM679 159v-60h-435v412h431v-61h-361v-111h353v-59h-353v-121
h365z" />
    <glyph glyph-name="uni326C" unicode="&#x326c;" horiz-adv-x="910" 
d="M832 306c0 220 -159 381 -377 381s-377 -161 -377 -381s159 -381 377 -381s377 161 377 381zM888 306c0 -250 -184 -434 -433 -434c-250 0 -433 184 -433 434c0 249 183 434 433 434c249 0 433 -185 433 -434zM207 506h498v-59h-102v-290h111v-59h-516v59h111v290h-102
v59zM378 447v-290h156v290h-156z" />
    <glyph glyph-name="uni326D" unicode="&#x326d;" horiz-adv-x="910" 
d="M888 306c0 -250 -184 -434 -433 -434c-250 0 -433 184 -433 434c0 249 183 434 433 434c249 0 433 -185 433 -434zM832 306c0 220 -159 381 -377 381s-377 -161 -377 -381s159 -381 377 -381s377 161 377 381zM455 71c-141 0 -209 65 -209 137v24c0 72 68 137 209 137
s209 -65 209 -137v-24c0 -72 -68 -137 -209 -137zM455 307c-95 0 -139 -38 -139 -77v-20c0 -39 44 -77 139 -77s139 38 139 77v20c0 39 -44 77 -139 77zM491 563v-93h207v-63h-486v63h207v93h72z" />
    <glyph glyph-name="uni326E" unicode="&#x326e;" horiz-adv-x="910" 
d="M888 306c0 -250 -184 -434 -433 -434c-250 0 -433 184 -433 434c0 249 183 434 433 434c249 0 433 -185 433 -434zM832 306c0 220 -159 381 -377 381s-377 -161 -377 -381s159 -381 377 -381s377 161 377 381zM638 576v-206h83v-55h-83v-293h-64v554h64zM253 139l-34 52
c202 124 198 136 198 234v47h-185v55h250v-82c0 -148 2 -161 -229 -306z" />
    <glyph glyph-name="uni326F" unicode="&#x326f;" horiz-adv-x="910" 
d="M832 306c0 220 -159 381 -377 381s-377 -161 -377 -381s159 -381 377 -381s377 161 377 381zM888 306c0 -250 -184 -434 -433 -434c-250 0 -433 184 -433 434c0 249 183 434 433 434c249 0 433 -185 433 -434zM638 576v-200h83v-55h-83v-299h-64v554h64zM299 529v-301h20
c84 0 148 5 213 16l7 -55c-73 -12 -134 -17 -232 -17h-72v357h64z" />
    <glyph glyph-name="uni3270" unicode="&#x3270;" horiz-adv-x="910" 
d="M832 306c0 220 -159 381 -377 381s-377 -161 -377 -381s159 -381 377 -381s377 161 377 381zM888 306c0 -250 -184 -434 -433 -434c-250 0 -433 184 -433 434c0 249 183 434 433 434c249 0 433 -185 433 -434zM230 167v359h256v-55h-192v-249h21c82 0 152 6 219 16l9 -53
c-74 -13 -145 -18 -240 -18h-73zM638 576v-199h83v-55h-83v-300h-64v554h64z" />
    <glyph glyph-name="uni3271" unicode="&#x3271;" horiz-adv-x="910" 
d="M832 306c0 220 -159 381 -377 381s-377 -161 -377 -381s159 -381 377 -381s377 161 377 381zM888 306c0 -250 -184 -434 -433 -434c-250 0 -433 184 -433 434c0 249 183 434 433 434c249 0 433 -185 433 -434zM295 322v-111h44c86 0 129 3 191 11l7 -53
c-54 -8 -105 -13 -213 -13h-92v219h186v102h-188v55h251v-210h-186zM638 576v-201h83v-56h-83v-297h-64v554h64z" />
    <glyph glyph-name="uni3272" unicode="&#x3272;" horiz-adv-x="910" 
d="M832 306c0 220 -159 381 -377 381s-377 -161 -377 -381s159 -381 377 -381s377 161 377 381zM888 306c0 -250 -184 -434 -433 -434c-250 0 -433 184 -433 434c0 249 183 434 433 434c249 0 433 -185 433 -434zM231 526h263v-358h-263v358zM431 222v250h-137v-250h137z
M638 576v-199h83v-55h-83v-300h-64v554h64z" />
    <glyph glyph-name="uni3273" unicode="&#x3273;" horiz-adv-x="910" 
d="M832 306c0 220 -159 381 -377 381s-377 -161 -377 -381s159 -381 377 -381s377 161 377 381zM888 306c0 -250 -184 -434 -433 -434c-250 0 -433 184 -433 434c0 249 183 434 433 434c249 0 433 -185 433 -434zM493 531v-363h-262v363h62v-129h138v129h62zM638 576v-198
h83v-55h-83v-301h-64v554h64zM293 348v-126h138v126h-138z" />
    <glyph glyph-name="uni3274" unicode="&#x3274;" horiz-adv-x="910" 
d="M832 306c0 220 -159 381 -377 381s-377 -161 -377 -381s159 -381 377 -381s377 161 377 381zM888 306c0 -250 -184 -434 -433 -434c-250 0 -433 184 -433 434c0 249 183 434 433 434c249 0 433 -185 433 -434zM638 576v-200h83v-55h-83v-299h-64v554h64zM399 536v-134
c0 -48 6 -66 49 -113c27 -30 53 -53 86 -84l-39 -45c-37 34 -65 63 -87 87c-18 19 -32 36 -39 50c-6 -11 -18 -28 -38 -49c-24 -26 -60 -59 -94 -91l-42 42c32 29 66 61 94 92c39 45 46 67 46 111v134h64z" />
    <glyph glyph-name="uni3275" unicode="&#x3275;" horiz-adv-x="910" 
d="M832 306c0 220 -159 381 -377 381s-377 -161 -377 -381s159 -381 377 -381s377 161 377 381zM888 306c0 -250 -184 -434 -433 -434c-250 0 -433 184 -433 434c0 249 183 434 433 434c249 0 433 -185 433 -434zM499 378v-64c0 -107 -60 -160 -140 -160
c-81 0 -141 53 -141 160v64c0 108 60 160 141 160c80 0 140 -53 140 -160zM438 322v47c0 83 -40 112 -79 112c-40 0 -80 -29 -80 -112v-47c0 -82 40 -111 80 -111c39 0 79 29 79 111zM638 576v-199h83v-55h-83v-300h-64v554h64z" />
    <glyph glyph-name="uni3276" unicode="&#x3276;" horiz-adv-x="910" 
d="M832 306c0 220 -159 381 -377 381s-377 -161 -377 -381s159 -381 377 -381s377 161 377 381zM888 306c0 -250 -184 -434 -433 -434c-250 0 -433 184 -433 434c0 249 183 434 433 434c249 0 433 -185 433 -434zM514 526v-55h-113v-75c0 -47 5 -66 49 -113
c28 -30 52 -51 84 -81l-39 -46c-39 36 -70 66 -92 91c-15 17 -26 31 -32 44c-7 -13 -18 -25 -35 -44c-24 -27 -59 -60 -94 -93l-42 42c32 30 62 59 90 90c41 44 47 68 47 110v75h-117v55h294zM638 576v-203h83v-55h-83v-296h-64v554h64z" />
    <glyph glyph-name="uni3277" unicode="&#x3277;" horiz-adv-x="910" 
d="M832 306c0 220 -159 381 -377 381s-377 -161 -377 -381s159 -381 377 -381s377 161 377 381zM888 306c0 -250 -184 -434 -433 -434c-250 0 -433 184 -433 434c0 249 183 434 433 434c249 0 433 -185 433 -434zM400 571v-78h118v-54h-118v-49c0 -42 10 -59 51 -108
c27 -32 49 -51 85 -86l-42 -44c-45 43 -70 70 -91 94c-14 17 -27 34 -34 45c-6 -11 -18 -27 -33 -45c-20 -23 -48 -52 -94 -95l-42 44c33 31 58 54 86 87c41 48 51 70 51 108v49h-122v54h122v78h63zM638 576v-204h83v-56h-83v-294h-64v554h64z" />
    <glyph glyph-name="uni3278" unicode="&#x3278;" horiz-adv-x="910" 
d="M832 306c0 220 -159 381 -377 381s-377 -161 -377 -381s159 -381 377 -381s377 161 377 381zM888 306c0 -250 -184 -434 -433 -434c-250 0 -433 184 -433 434c0 249 183 434 433 434c249 0 433 -185 433 -434zM273 136l-34 52c142 80 180 119 188 150l-200 -6l-2 55
l205 3v83h-188v54h251v-164c0 -74 -35 -120 -220 -227zM638 576v-203h83v-55h-83v-296h-64v554h64z" />
    <glyph glyph-name="uni3279" unicode="&#x3279;" horiz-adv-x="910" 
d="M233 532h254v-55h-192v-101h180v-53h-180v-109h47c85 0 129 3 190 12l8 -53c-54 -8 -105 -13 -204 -13h-103v372zM638 576v-201h83v-56h-83v-297h-64v554h64zM832 306c0 220 -159 381 -377 381s-377 -161 -377 -381s159 -381 377 -381s377 161 377 381zM888 306
c0 -250 -184 -434 -433 -434c-250 0 -433 184 -433 434c0 249 183 434 433 434c249 0 433 -185 433 -434z" />
    <glyph glyph-name="uni327A" unicode="&#x327a;" horiz-adv-x="910" 
d="M832 306c0 220 -159 381 -377 381s-377 -161 -377 -381s159 -381 377 -381s377 161 377 381zM888 306c0 -250 -184 -434 -433 -434c-250 0 -433 184 -433 434c0 249 183 434 433 434c249 0 433 -185 433 -434zM528 524v-52h-52v-250c21 1 44 3 67 6l4 -51
c-57 -7 -124 -9 -212 -9h-131v52h62v252h-56v52h318zM352 220c19 0 40 0 62 1v251h-85v-252h23zM638 576v-199h83v-56h-83v-299h-64v554h64z" />
    <glyph glyph-name="uni327B" unicode="&#x327b;" horiz-adv-x="910" 
d="M368 145c-85 0 -135 57 -135 116v36c0 58 50 117 135 117c84 0 134 -59 134 -117v-36c0 -59 -50 -116 -134 -116zM368 361c-46 0 -76 -28 -76 -72v-21c0 -43 30 -70 76 -70c45 0 75 27 75 70v21c0 44 -30 72 -75 72zM638 576v-218h83v-55h-83v-281h-64v554h64zM208 496
h128v76h64v-76h126v-54h-318v54zM832 306c0 220 -159 381 -377 381s-377 -161 -377 -381s159 -381 377 -381s377 161 377 381zM888 306c0 -250 -184 -434 -433 -434c-250 0 -433 184 -433 434c0 249 183 434 433 434c249 0 433 -185 433 -434z" />
    <glyph glyph-name="uni24D0" unicode="&#x24d0;" horiz-adv-x="910" 
d="M832 306c0 220 -159 381 -377 381s-377 -161 -377 -381s159 -381 377 -381s377 161 377 381zM888 306c0 -250 -184 -434 -433 -434c-250 0 -433 184 -433 434c0 249 183 434 433 434c249 0 433 -185 433 -434zM424 100c-81 0 -134 44 -134 116v19c0 69 46 116 147 116
h107v28c0 56 -27 84 -87 84c-48 0 -82 -16 -119 -41l-33 50c40 27 87 51 152 51c91 0 153 -48 153 -131v-286h-64l-1 50c-17 -32 -61 -56 -121 -56zM544 247v48h-105c-60 0 -84 -24 -84 -64v-11c0 -44 36 -63 76 -63c59 0 113 29 113 90z" />
    <glyph glyph-name="uni24D1" unicode="&#x24d1;" horiz-adv-x="910" 
d="M832 306c0 220 -159 381 -377 381s-377 -161 -377 -381s159 -381 377 -381s377 161 377 381zM888 306c0 -250 -184 -434 -433 -434c-250 0 -433 184 -433 434c0 249 183 434 433 434c249 0 433 -185 433 -434zM374 82h-1v-48h-65v567h66v-209c27 41 72 58 119 58
c101 0 160 -64 160 -174v-73c0 -110 -67 -175 -162 -175c-60 0 -98 26 -117 54zM587 213v52c0 81 -39 126 -102 126c-58 0 -111 -40 -111 -106v-108c0 -44 46 -91 111 -91c63 0 102 47 102 127z" />
    <glyph glyph-name="uni24D2" unicode="&#x24d2;" horiz-adv-x="910" 
d="M832 306c0 220 -159 381 -377 381s-377 -161 -377 -381s159 -381 377 -381s377 161 377 381zM888 306c0 -250 -184 -434 -433 -434c-250 0 -433 184 -433 434c0 249 183 434 433 434c249 0 433 -185 433 -434zM460 516c64 0 105 -18 139 -44l-32 -50
c-37 27 -68 34 -107 34c-59 0 -107 -39 -107 -123v-52c0 -89 48 -128 108 -128c54 0 87 16 117 38l31 -51c-28 -23 -74 -47 -148 -47c-111 0 -176 69 -176 187v51c0 118 70 185 175 185z" />
    <glyph glyph-name="uni24D3" unicode="&#x24d3;" horiz-adv-x="910" 
d="M832 306c0 220 -159 381 -377 381s-377 -161 -377 -381s159 -381 377 -381s377 161 377 381zM888 306c0 -250 -184 -434 -433 -434c-250 0 -433 184 -433 434c0 249 183 434 433 434c249 0 433 -185 433 -434zM544 42v51h-1c-23 -39 -70 -57 -120 -57
c-100 0 -160 63 -160 174v72c0 111 67 176 162 176c61 0 99 -26 117 -53v204h66v-567h-64zM329 273v-52c0 -80 40 -127 102 -127c61 0 111 38 111 104v111c0 44 -46 91 -111 91c-63 0 -102 -47 -102 -127z" />
    <glyph glyph-name="uni24D4" unicode="&#x24d4;" horiz-adv-x="910" 
d="M832 306c0 220 -159 381 -377 381s-377 -161 -377 -381s159 -381 377 -381s377 161 377 381zM888 306c0 -250 -184 -434 -433 -434c-250 0 -433 184 -433 434c0 249 183 434 433 434c249 0 433 -185 433 -434zM349 338h211v11c0 69 -39 112 -104 112
c-64 0 -107 -46 -107 -114v-9zM587 192l28 -51c-35 -23 -82 -45 -155 -45c-103 0 -177 60 -177 188v48c0 121 71 186 173 186c105 0 169 -68 169 -184v-51h-276v-4c0 -81 46 -126 114 -126c53 0 91 16 124 39z" />
    <glyph glyph-name="uni24D5" unicode="&#x24d5;" horiz-adv-x="910" 
d="M832 306c0 220 -159 381 -377 381s-377 -161 -377 -381s159 -381 377 -381s377 161 377 381zM888 306c0 -250 -184 -434 -433 -434c-250 0 -433 184 -433 434c0 249 183 434 433 434c249 0 433 -185 433 -434zM399 18v348h-68v57h68v48c0 84 40 119 115 119
c24 0 55 -5 71 -11l-10 -54c-19 6 -37 8 -56 8c-32 0 -54 -11 -54 -65v-45h109v-57h-109v-348h-66z" />
    <glyph glyph-name="uni24D6" unicode="&#x24d6;" horiz-adv-x="910" 
d="M888 306c0 -250 -184 -434 -433 -434c-250 0 -433 184 -433 434c0 249 183 434 433 434c249 0 433 -185 433 -434zM832 306c0 220 -159 381 -377 381s-377 -161 -377 -381s159 -381 377 -381s377 161 377 381zM555 173v51c-23 -39 -70 -55 -118 -55
c-100 0 -160 63 -160 174v64c0 111 67 176 162 176c61 0 99 -26 117 -53v45h66v-402c0 -114 -63 -173 -178 -173c-56 0 -103 17 -136 44l30 51c30 -21 66 -34 108 -34c71 0 109 36 109 112zM342 398v-45c0 -80 40 -126 103 -126c61 0 111 38 111 104v103
c0 44 -47 91 -111 91s-103 -47 -103 -127z" />
    <glyph glyph-name="uni24D7" unicode="&#x24d7;" horiz-adv-x="910" 
d="M832 306c0 220 -159 381 -377 381s-377 -161 -377 -381s159 -381 377 -381s377 161 377 381zM888 306c0 -250 -184 -434 -433 -434c-250 0 -433 184 -433 434c0 249 183 434 433 434c249 0 433 -185 433 -434zM495 445c83 0 144 -50 144 -144v-272h-66v256
c0 66 -27 101 -93 101c-55 0 -108 -41 -108 -100v-257h-66v567h66v-210c24 35 65 59 123 59z" />
    <glyph glyph-name="uni24D8" unicode="&#x24d8;" horiz-adv-x="910" 
d="M832 306c0 220 -159 381 -377 381s-377 -161 -377 -381s159 -381 377 -381s377 161 377 381zM888 306c0 -250 -184 -434 -433 -434c-250 0 -433 184 -433 434c0 249 183 434 433 434c249 0 433 -185 433 -434zM420 28v408h66v-408h-66zM417 507v73h71v-73h-71z" />
    <glyph glyph-name="uni24D9" unicode="&#x24d9;" horiz-adv-x="910" 
d="M888 306c0 -250 -184 -434 -433 -434c-250 0 -433 184 -433 434c0 249 183 434 433 434c249 0 433 -185 433 -434zM832 306c0 220 -159 381 -377 381s-377 -161 -377 -381s159 -381 377 -381s377 161 377 381zM514 446v-334c0 -84 -40 -120 -115 -120c-24 0 -55 5 -71 11
l10 54c19 -6 37 -8 55 -8c32 0 55 12 55 66v331h66zM446 517v73h70v-73h-70z" />
    <glyph glyph-name="uni24DA" unicode="&#x24da;" horiz-adv-x="910" 
d="M832 306c0 220 -159 381 -377 381s-377 -161 -377 -381s159 -381 377 -381s377 161 377 381zM888 306c0 -250 -184 -434 -433 -434c-250 0 -433 184 -433 434c0 249 183 434 433 434c249 0 433 -185 433 -434zM652 440l-162 -162l173 -247h-82l-137 201l-59 -59v-142h-66
v567h66v-345l182 187h85z" />
    <glyph glyph-name="uni24DB" unicode="&#x24db;" horiz-adv-x="910" 
d="M832 306c0 220 -159 381 -377 381s-377 -161 -377 -381s159 -381 377 -381s377 161 377 381zM888 306c0 -250 -184 -434 -433 -434c-250 0 -433 184 -433 434c0 249 183 434 433 434c249 0 433 -185 433 -434zM422 23v567h66v-567h-66z" />
    <glyph glyph-name="uni24DC" unicode="&#x24dc;" horiz-adv-x="910" 
d="M832 306c0 220 -159 381 -377 381s-377 -161 -377 -381s159 -381 377 -381s377 161 377 381zM888 306c0 -250 -184 -434 -433 -434c-250 0 -433 184 -433 434c0 249 183 434 433 434c249 0 433 -185 433 -434zM608 512c86 0 130 -54 130 -146v-270h-66v250
c0 69 -21 106 -77 106c-50 0 -94 -37 -94 -98v-258h-66v250c0 69 -22 106 -77 106c-50 0 -95 -36 -95 -95v-261h-66v408h66v-55c17 34 52 63 107 63c58 0 95 -26 115 -70c24 38 61 70 123 70z" />
    <glyph glyph-name="uni24DD" unicode="&#x24dd;" horiz-adv-x="910" 
d="M832 306c0 220 -159 381 -377 381s-377 -161 -377 -381s159 -381 377 -381s377 161 377 381zM888 306c0 -250 -184 -434 -433 -434c-250 0 -433 184 -433 434c0 249 183 434 433 434c249 0 433 -185 433 -434zM488 512c83 0 144 -50 144 -144v-272h-66v256
c0 66 -27 101 -93 101c-55 0 -108 -41 -108 -100v-257h-66v408h65v-53c23 35 64 61 124 61z" />
    <glyph glyph-name="uni24DE" unicode="&#x24de;" horiz-adv-x="910" 
d="M832 306c0 220 -159 381 -377 381s-377 -161 -377 -381s159 -381 377 -381s377 161 377 381zM888 306c0 -250 -184 -434 -433 -434c-250 0 -433 184 -433 434c0 249 183 434 433 434c249 0 433 -185 433 -434zM456 519c111 0 179 -69 179 -186v-51
c0 -117 -68 -186 -179 -186s-180 69 -180 186v51c0 118 69 186 180 186zM456 154c68 0 113 44 113 134v39c0 90 -45 133 -113 133s-112 -43 -112 -133v-39c0 -90 44 -134 112 -134z" />
    <glyph glyph-name="uni24DF" unicode="&#x24df;" horiz-adv-x="910" 
d="M832 306c0 220 -159 381 -377 381s-377 -161 -377 -381s159 -381 377 -381s377 161 377 381zM888 306c0 -250 -184 -434 -433 -434c-250 0 -433 184 -433 434c0 249 183 434 433 434c249 0 433 -185 433 -434zM496 154c-43 0 -94 22 -116 52v-206h-66v568h65v-52
c24 41 71 60 121 60c101 0 159 -65 159 -174v-73c0 -112 -66 -175 -163 -175zM593 339v52c0 81 -39 126 -102 126c-58 0 -111 -40 -111 -106v-108c0 -44 46 -91 111 -91c63 0 102 47 102 127z" />
    <glyph glyph-name="uni24E0" unicode="&#x24e0;" horiz-adv-x="910" 
d="M832 306c0 220 -159 381 -377 381s-377 -161 -377 -381s159 -381 377 -381s377 161 377 381zM888 306c0 -250 -184 -434 -433 -434c-250 0 -433 184 -433 434c0 249 183 434 433 434c249 0 433 -185 433 -434zM534 0v210c-24 -39 -71 -56 -119 -56
c-100 0 -160 63 -160 174v72c0 111 67 176 162 176c61 0 99 -26 117 -53v45h66v-568h-66zM321 391v-52c0 -80 40 -127 102 -127c61 0 111 38 111 104v111c0 44 -46 91 -111 91c-63 0 -102 -47 -102 -127z" />
    <glyph glyph-name="uni24E1" unicode="&#x24e1;" horiz-adv-x="910" 
d="M832 306c0 220 -159 381 -377 381s-377 -161 -377 -381s159 -381 377 -381s377 161 377 381zM888 306c0 -250 -184 -434 -433 -434c-250 0 -433 184 -433 434c0 249 183 434 433 434c249 0 433 -185 433 -434zM615 494l-21 -65c-14 5 -30 9 -49 9
c-58 0 -104 -48 -104 -115v-237h-66v408h65v-66c23 42 58 74 120 74c19 0 38 -3 55 -8z" />
    <glyph glyph-name="uni24E2" unicode="&#x24e2;" horiz-adv-x="910" 
d="M832 306c0 220 -159 381 -377 381s-377 -161 -377 -381s159 -381 377 -381s377 161 377 381zM888 306c0 -250 -184 -434 -433 -434c-250 0 -433 184 -433 434c0 249 183 434 433 434c249 0 433 -185 433 -434zM456 153c57 0 90 23 90 57v6c0 37 -21 50 -99 66
c-87 17 -138 46 -138 116v9c0 57 46 111 150 111c57 0 105 -15 144 -42l-30 -49c-29 20 -66 33 -111 33c-60 0 -87 -23 -87 -53v-8c0 -33 28 -47 92 -59c100 -19 145 -49 145 -122v-9c0 -65 -61 -114 -153 -114c-68 0 -124 20 -162 49l30 52c37 -25 80 -43 129 -43z" />
    <glyph glyph-name="uni24E3" unicode="&#x24e3;" horiz-adv-x="910" 
d="M832 306c0 220 -159 381 -377 381s-377 -161 -377 -381s159 -381 377 -381s377 161 377 381zM888 306c0 -250 -184 -434 -433 -434c-250 0 -433 184 -433 434c0 249 183 434 433 434c249 0 433 -185 433 -434zM391 170v236h-68v57h68v104h66v-104h110v-57h-110v-235
c0 -52 20 -63 54 -63c19 0 36 2 55 9l10 -54c-16 -6 -47 -12 -74 -12c-76 0 -111 35 -111 119z" />
    <glyph glyph-name="uni24E4" unicode="&#x24e4;" horiz-adv-x="910" 
d="M832 306c0 220 -159 381 -377 381s-377 -161 -377 -381s159 -381 377 -381s377 161 377 381zM888 306c0 -250 -184 -434 -433 -434c-250 0 -433 184 -433 434c0 249 183 434 433 434c249 0 433 -185 433 -434zM432 83c-84 0 -143 48 -143 143v271h66v-255
c0 -66 25 -101 91 -101c56 0 107 41 107 100v256h66v-408h-65v53c-23 -35 -64 -59 -122 -59z" />
    </font>
</defs>
</svg>
